<?xml version="1.0" standalone="no"?>
<!DOCTYPE svg PUBLIC "-//W3C//DTD SVG 1.1//EN" "http://www.w3.org/Graphics/SVG/1.1/DTD/svg11.dtd" >
<svg xmlns="http://www.w3.org/2000/svg">
<metadata></metadata>
<defs>
<font id="glyphicons_filetypesregular" horiz-adv-x="2400" >
<font-face units-per-em="2400" ascent="1920" descent="-480" />
<missing-glyph horiz-adv-x="500" />
<glyph />
<glyph />
<glyph unicode="&#xd;" />
<glyph unicode=" " />
<glyph unicode="&#x3c;" d="M200 50v2300q0 21 14.5 35.5t35.5 14.5h1250v-550q0 -21 14.5 -35.5t35.5 -14.5h550v-700h-1400q-41 0 -70.5 -29.5t-29.5 -70.5v-500q0 -41 29.5 -70.5t70.5 -29.5h1400v-350q0 -21 -14.5 -35.5t-35.5 -14.5h-1800q-21 0 -35.5 14.5t-14.5 35.5zM480 1812l340 -205v155 l-151 88l151 84v154l-340 -197v-79zM800 600v400h100v-400h200v-100h-200zM880 1607l340 205v79l-340 197v-154l151 -84l-151 -88v-155zM1200 600v300l100 100h200v-100h-200v-100h200v-100h-200v-100h200v-100h-200zM1600 500v100h200v100h100v-100l-100 -100h-200z M1600 800v100l100 100h200v-100h-200v-100h-100zM1600 1950v450l500 -500h-450q-21 0 -35.5 14.5t-14.5 35.5zM1700 700v100h100v-100h-100zM2000 500v100h200v100h100v-100l-100 -100h-200zM2000 800v100l100 100h200v-100h-200v-100h-100zM2100 700v100h100v-100h-100z " />
<glyph unicode="&#xa0;" />
<glyph unicode="&#x2000;" horiz-adv-x="1200" />
<glyph unicode="&#x2001;" />
<glyph unicode="&#x2002;" horiz-adv-x="1200" />
<glyph unicode="&#x2003;" />
<glyph unicode="&#x2004;" horiz-adv-x="800" />
<glyph unicode="&#x2005;" horiz-adv-x="600" />
<glyph unicode="&#x2006;" horiz-adv-x="400" />
<glyph unicode="&#x2007;" horiz-adv-x="400" />
<glyph unicode="&#x2008;" horiz-adv-x="300" />
<glyph unicode="&#x2009;" horiz-adv-x="480" />
<glyph unicode="&#x200a;" horiz-adv-x="133" />
<glyph unicode="&#x202f;" horiz-adv-x="480" />
<glyph unicode="&#x205f;" horiz-adv-x="600" />
<glyph unicode="&#x25fc;" horiz-adv-x="500" d="M0 0z" />
<glyph unicode="&#xe001;" d="M200 50v2300q0 21 15 35.5t35 14.5h1250v-550q0 -21 14.5 -35.5t35.5 -14.5h550v-700h-1400q-41 0 -70.5 -29.5t-29.5 -70.5v-500q0 -41 29.5 -70.5t70.5 -29.5h1400v-350q0 -21 -14.5 -35.5t-35.5 -14.5h-1800q-20 0 -35 14.5t-15 35.5zM500 1400h700v100h-700v-100z M500 1600h700v100h-700v-100zM500 1800h700v100h-700v-100zM500 2000h700v100h-700v-100zM800 900h100v-400h100v400h100v100h-300v-100zM1200 500h100v200h-100v-200zM1200 800h100v200h-100v-200zM1300 700v100h100v-100h-100zM1400 500h100v200h-100v-200zM1400 800h100 v200h-100v-200zM1600 900h100v-400h100v400h100v100h-300v-100zM1600 1950v450l500 -500h-450q-21 0 -35.5 14.5t-14.5 35.5z" />
<glyph unicode="&#xe002;" d="M200 50v2300q0 21 15 35.5t35 14.5h1250v-550q0 -21 14.5 -35.5t35.5 -14.5h550v-700h-1400q-41 0 -70.5 -29.5t-29.5 -70.5v-500q0 -41 29.5 -70.5t70.5 -29.5h1400v-350q0 -21 -14.5 -35.5t-35.5 -14.5h-1800q-20 0 -35 14.5t-15 35.5zM500 1400h700v100h-700v-100z M500 1600h700v100h-700v-100zM500 1800h700v100h-700v-100zM500 2000h700v100h-700v-100zM800 500v500h200l100 -100v-300l-100 -100h-200zM900 600h100v300h-100v-300zM1200 600v300l100 100h100l100 -100v-300l-100 -100h-100zM1300 600h100v300h-100v-300zM1600 600v300 l100 100h200v-100h-200v-300h200v-100h-200zM1600 1950v450l500 -500h-450q-21 0 -35.5 14.5t-14.5 35.5z" />
<glyph unicode="&#xe003;" d="M200 50v2300q0 21 15 35.5t35 14.5h1250v-550q0 -21 14.5 -35.5t35.5 -14.5h550v-700h-1400q-41 0 -70.5 -29.5t-29.5 -70.5v-500q0 -41 29.5 -70.5t70.5 -29.5h1400v-350q0 -21 -14.5 -35.5t-35.5 -14.5h-1800q-20 0 -35 14.5t-15 35.5zM500 1400h700v100h-700v-100z M500 1600h700v100h-700v-100zM500 1800h700v100h-700v-100zM500 2000h700v100h-700v-100zM800 500h100v100h100l-100 100v200h100v-200h100v200l-100 100h-200v-500zM1000 500v100h100v-100h-100zM1200 900v100h300v-100h-100v-400h-100v400h-100zM1600 500v500h300v-100 h-200v-100h200v-100h-200v-200h-100zM1600 1950v450l500 -500h-450q-21 0 -35.5 14.5t-14.5 35.5z" />
<glyph unicode="&#xe004;" d="M200 50v2300q0 21 15 35.5t35 14.5h1250v-550q0 -21 14.5 -35.5t35.5 -14.5h550v-700h-1400q-41 0 -70.5 -29.5t-29.5 -70.5v-500q0 -41 29.5 -70.5t70.5 -29.5h1400v-350q0 -21 -14.5 -35.5t-35.5 -14.5h-1800q-20 0 -35 14.5t-15 35.5zM500 1400h700v100h-700v-100z M500 1600h700v100h-700v-100zM500 1800h700v100h-700v-100zM500 2000h700v100h-700v-100zM800 500h300v100h-200v400h-100v-500zM1200 500h300v500h-300v-500zM1300 600v300h100v-300h-100zM1600 500h300v300h-100v-200h-100v300h200v100h-300v-500zM1600 1950v450l500 -500 h-450q-21 0 -35.5 14.5t-14.5 35.5z" />
<glyph unicode="&#xe005;" d="M200 50q0 -21 15 -35.5t35 -14.5h1800q21 0 35.5 14.5t14.5 35.5v350h-1400q-41 0 -70.5 29.5t-29.5 70.5v500q0 41 29.5 70.5t70.5 29.5h1400v700h-550q-21 0 -35.5 14.5t-14.5 35.5v550h-1250q-20 0 -35 -14.5t-15 -35.5v-2300zM500 1400v100h700v-100h-700zM500 1600 v100h700v-100h-700zM500 1800v100h700v-100h-700zM500 2000v100h700v-100h-700zM800 900v100h300v-100h-100v-400h-100v400h-100zM1200 600l100 -100h200v100h-200v100h200v100h-200v100h200v100h-200l-100 -100v-300zM1600 500h100v200h-100v-200zM1600 800h100v200h-100 v-200zM1600 1950q0 -21 14.5 -35.5t35.5 -14.5h450l-500 500v-450zM1700 700h100v100h-100v-100zM1800 500h100v200h-100v-200zM1800 800h100v200h-100v-200z" />
<glyph unicode="&#xe006;" d="M200 50v2300q0 21 15 35.5t35 14.5h1250v-550q0 -21 14.5 -35.5t35.5 -14.5h550v-700h-1400q-41 0 -70.5 -29.5t-29.5 -70.5v-500q0 -41 29.5 -70.5t70.5 -29.5h1400v-350q0 -21 -14.5 -35.5t-35.5 -14.5h-1800q-20 0 -35 14.5t-15 35.5zM500 1400h700v100h-700v-100z M500 1600h700v100h-700v-100zM500 1800h700v100h-700v-100zM500 2000h700v100h-700v-100zM800 500v500h100v-100h100v100h100v-500h-100v300h-100v-300h-100zM1200 500v100h200v100h100v-100l-100 -100h-200zM1200 800v100l100 100h200v-100h-200v-100h-100zM1300 700v100 h100v-100h-100zM1600 600v300l100 100h200v-100h-200v-300h100v200h100v-300h-200zM1600 1950v450l500 -500h-450q-21 0 -35.5 14.5t-14.5 35.5z" />
<glyph unicode="&#xe007;" d="M200 50v2300q0 21 14.5 35.5t35.5 14.5h1250v-550q0 -21 14.5 -35.5t35.5 -14.5h550v-700h-1400q-41 0 -70.5 -29.5t-29.5 -70.5v-500q0 -41 29.5 -70.5t70.5 -29.5h1400v-350q0 -21 -14.5 -35.5t-35.5 -14.5h-1800q-21 0 -35.5 14.5t-14.5 35.5zM500 1400h700v100h-700 v-100zM500 1600h700v100h-700v-100zM500 1800h700v100h-700v-100zM500 2000h700v100h-700v-100zM800 900v100h300v-100h-100v-400h-100v400h-100zM1200 600l100 -100h200v100h-200v100h200v100h-200v100h200v100h-200l-100 -100v-300zM1600 500h100v200h-100v-200zM1600 800 h100v200h-100v-200zM1600 1950v450l500 -500h-450q-21 0 -35.5 14.5t-14.5 35.5zM1700 700h100v100h-100v-100zM1800 500h100v200h-100v-200zM1800 800h100v200h-100v-200zM2000 900h100v-400h100v400h100v100h-300v-100z" />
<glyph unicode="&#xe008;" d="M200 50v2300q0 21 14.5 35.5t35.5 14.5h1250v-550q0 -21 14.5 -35.5t35.5 -14.5h550v-700h-1400q-41 0 -70.5 -29.5t-29.5 -70.5v-500q0 -41 29.5 -70.5t70.5 -29.5h1400v-350q0 -21 -14.5 -35.5t-35.5 -14.5h-1800q-21 0 -35.5 14.5t-14.5 35.5zM500 1400h700v100h-700 v-100zM500 1600h700v100h-700v-100zM500 1800h700v100h-700v-100zM500 2000h700v100h-700v-100zM800 500v500h100v-300h100v300h100v-500h-100v100h-100v-100h-100zM1200 500v500h200l100 -100v-200l-100 -100h-100v-100h-100zM1300 700h100v200h-100v-200zM1600 500v500 h200l100 -100v-300l-100 -100h-200zM1600 1950v450l500 -500h-450q-21 0 -35.5 14.5t-14.5 35.5zM1700 600h100v300h-100v-300z" />
<glyph unicode="&#xe009;" d="M200 50v2300q0 21 14.5 35.5t35.5 14.5h1250v-550q0 -21 14.5 -35.5t35.5 -14.5h550v-700h-1400q-41 0 -70.5 -29.5t-29.5 -70.5v-500q0 -41 29.5 -70.5t70.5 -29.5h1400v-350q0 -21 -14.5 -35.5t-35.5 -14.5h-1800q-21 0 -35.5 14.5t-14.5 35.5zM500 1400h700v100h-700 v-100zM500 1600h700v100h-700v-100zM500 1800h700v100h-700v-100zM500 2000h700v100h-700v-100zM800 500v500h100v-300h100v300h100v-500h-100v100h-100v-100h-100zM1200 500v500h200l100 -100v-200l-100 -100h-100v-100h-100zM1300 700h100v200h-100v-200zM1600 500v100 h200v100h100v-100l-100 -100h-200zM1600 800v100l100 100h200v-100h-200v-100h-100zM1600 1950v450l500 -500h-450q-21 0 -35.5 14.5t-14.5 35.5zM1700 700v100h100v-100h-100z" />
<glyph unicode="&#xe010;" d="M200 50v2300q0 21 14.5 35.5t35.5 14.5h1250v-550q0 -21 14.5 -35.5t35.5 -14.5h550v-700h-1400q-41 0 -70.5 -29.5t-29.5 -70.5v-500q0 -41 29.5 -70.5t70.5 -29.5h1400v-350q0 -21 -14.5 -35.5t-35.5 -14.5h-1800q-21 0 -35.5 14.5t-14.5 35.5zM500 1400h700v100h-700 v-100zM500 1600h700v100h-700v-100zM500 1800h700v100h-700v-100zM500 2000h700v100h-700v-100zM800 500v500h200l100 -100v-300l-100 -100h-200zM900 600h100v300h-100v-300zM1200 600v300l100 100h100l100 -100v-300l-100 -100h-100zM1300 600h100v300h-100v-300z M1600 600v300l100 100h200v-100h-200v-300h200v-100h-200zM1600 1950v450l500 -500h-450q-21 0 -35.5 14.5t-14.5 35.5zM2000 500h100v200h-100v-200zM2000 800h100v200h-100v-200zM2100 700h100v100h-100v-100zM2200 500h100v200h-100v-200zM2200 800h100v200h-100v-200z " />
<glyph unicode="&#xe011;" d="M200 50v2300q0 21 14.5 35.5t35.5 14.5h1250v-550q0 -21 14.5 -35.5t35.5 -14.5h550v-700h-1400q-41 0 -70.5 -29.5t-29.5 -70.5v-500q0 -41 29.5 -70.5t70.5 -29.5h1400v-350q0 -21 -14.5 -35.5t-35.5 -14.5h-1800q-21 0 -35.5 14.5t-14.5 35.5zM500 1400h700v100h-700 v-100zM500 1600h700v100h-700v-100zM500 1800h700v100h-700v-100zM500 2000h700v100h-700v-100zM800 500v500h200l100 -100v-200l-100 -100h-100v-100h-100zM900 700h100v200h-100v-200zM1200 500v400l100 100h100l100 -100v-400h-100v100h-100v-100h-100zM1300 700h100v200 h-100v-200zM1600 500v500h300v-100h-200v-300h100v200h100v-300h-300zM1600 1950v450l500 -500h-450q-21 0 -35.5 14.5t-14.5 35.5zM2000 600v300l100 100h200v-100h-200v-100h200v-100h-200v-100h200v-100h-200z" />
<glyph unicode="&#xe012;" d="M200 50v2300q0 21 14.5 35.5t35.5 14.5h1250v-550q0 -21 14.5 -35.5t35.5 -14.5h550v-700h-1400q-41 0 -70.5 -29.5t-29.5 -70.5v-500q0 -41 29.5 -70.5t70.5 -29.5h1400v-350q0 -21 -14.5 -35.5t-35.5 -14.5h-1800q-21 0 -35.5 14.5t-14.5 35.5zM500 1600h300v100h-300 v-100zM500 1800h300v100h-300v-100zM500 2000h300v100h-300v-100zM800 600v300l100 100h200v-100h-200v-300h200v-100h-200zM900 1600h300v100h-300v-100zM900 1800h300v100h-300v-100zM900 2000h300v100h-300v-100zM1200 500v100h200v100h100v-100l-100 -100h-200z M1200 800v100l100 100h200v-100h-200v-100h-100zM1300 700v100h100v-100h-100zM1600 500v500h100v-400h100v-100h-200zM1600 1950v450l500 -500h-450q-21 0 -35.5 14.5t-14.5 35.5zM1800 600v400h100v-400h-100z" />
<glyph unicode="&#xe013;" d="M200 50v2300q0 21 14.5 35.5t35.5 14.5h1250v-550q0 -21 14.5 -35.5t35.5 -14.5h550v-700h-1400q-41 0 -70.5 -29.5t-29.5 -70.5v-500q0 -41 29.5 -70.5t70.5 -29.5h1400v-350q0 -21 -14.5 -35.5t-35.5 -14.5h-1800q-21 0 -35.5 14.5t-14.5 35.5zM500 1600h300v100h-300 v-100zM500 1800h300v100h-300v-100zM500 2000h300v100h-300v-100zM800 500v500h200l100 -100v-300l-100 -100h-200zM900 600h100v300h-100v-300zM900 1600h300v100h-300v-100zM900 1800h300v100h-300v-100zM900 2000h300v100h-300v-100zM1200 500v400l100 100h100l100 -100 v-400h-100v100h-100v-100h-100zM1300 700h100v200h-100v-200zM1600 900h100v-400h100v400h100v100h-300v-100zM1600 1950v450l500 -500h-450q-21 0 -35.5 14.5t-14.5 35.5z" />
<glyph unicode="&#xe014;" d="M200 50v2300q0 21 14.5 35.5t35.5 14.5h1250v-550q0 -21 14.5 -35.5t35.5 -14.5h550v-700h-1400q-41 0 -70.5 -29.5t-29.5 -70.5v-500q0 -41 29.5 -70.5t70.5 -29.5h1400v-350q0 -21 -14.5 -35.5t-35.5 -14.5h-1800q-21 0 -35.5 14.5t-14.5 35.5zM500 1600h300v100h-300 v-100zM500 1800h300v100h-300v-100zM500 2000h300v100h-300v-100zM800 900h100v-400h100v400h100v100h-300v-100zM900 1600h300v100h-300v-100zM900 1800h300v100h-300v-100zM900 2000h300v100h-300v-100zM1200 500v400l100 100h100l100 -100v-400h-100v100h-100v-100h-100z M1300 700h100v200h-100v-200zM1600 500v500h200l100 -100v-200h-100v200h-100v-200l100 -100h-100v-100h-100zM1600 1950v450l500 -500h-450q-21 0 -35.5 14.5t-14.5 35.5zM1800 500v100h100v-100h-100z" />
<glyph unicode="&#xe015;" d="M200 50v2300q0 21 14.5 35.5t35.5 14.5h1250v-550q0 -21 14.5 -35.5t35.5 -14.5h550v-700h-1400q-41 0 -70.5 -29.5t-29.5 -70.5v-500q0 -41 29.5 -70.5t70.5 -29.5h1400v-350q0 -21 -14.5 -35.5t-35.5 -14.5h-1800q-21 0 -35.5 14.5t-14.5 35.5zM500 1600h300v100h-300 v-100zM500 1800h300v100h-300v-100zM500 2000h300v100h-300v-100zM800 500v200h100v-200h-100zM800 800v200h100v-200h-100zM900 700v100h100v-100h-100zM900 1600h300v100h-300v-100zM900 1800h300v100h-300v-100zM900 2000h300v100h-300v-100zM1000 500v200h100v-200h-100 zM1000 800v200h100v-200h-100zM1200 500h100v300h100v-300h100v500h-100v-100h-100v100h-100v-500zM1600 600v400h100v-400h200v-100h-200zM1600 1950v450l500 -500h-450q-21 0 -35.5 14.5t-14.5 35.5z" />
<glyph unicode="&#xe016;" d="M200 50v2300q0 21 14.5 35.5t35.5 14.5h1250v-550q0 -21 14.5 -35.5t35.5 -14.5h550v-700h-1400q-41 0 -70.5 -29.5t-29.5 -70.5v-500q0 -41 29.5 -70.5t70.5 -29.5h1400v-350q0 -21 -14.5 -35.5t-35.5 -14.5h-1800q-21 0 -35.5 14.5t-14.5 35.5zM500 1600h300v100h-300 v-100zM500 1800h300v100h-300v-100zM500 2000h300v100h-300v-100zM800 500h200v100h-100v400h-100v-500zM900 1600h300v100h-300v-100zM900 1800h300v100h-300v-100zM900 2000h300v100h-300v-100zM1000 600v400h100v-400h-100zM1200 600v300l100 100h200v-100h-200v-300h200 v-100h-200zM1600 500v400l100 100h200v-100h-200v-100h200v-100h-200v-200h-100zM1600 1950v450l500 -500h-450q-21 0 -35.5 14.5t-14.5 35.5z" />
<glyph unicode="&#xe017;" d="M200 50v2300q0 21 14.5 35.5t35.5 14.5h1250v-550q0 -21 14.5 -35.5t35.5 -14.5h550v-700h-1400q-41 0 -70.5 -29.5t-29.5 -70.5v-500q0 -41 29.5 -70.5t70.5 -29.5h1400v-350q0 -21 -14.5 -35.5t-35.5 -14.5h-1800q-21 0 -35.5 14.5t-14.5 35.5zM500 1600h300v100h-300 v-100zM500 1800h300v100h-300v-100zM500 2000h300v100h-300v-100zM800 500v500h200l100 -100v-200l-100 -100h-100v-100h-100zM900 700h100v200h-100v-200zM900 1600h300v100h-300v-100zM900 1800h300v100h-300v-100zM900 2000h300v100h-300v-100zM1200 500v500h200 l100 -100v-200l-100 -100h-100v-100h-100zM1300 700h100v200h-100v-200zM1600 500v100h200v100h100v-100l-100 -100h-200zM1600 800v100l100 100h200v-100h-200v-100h-100zM1600 1950v450l500 -500h-450q-21 0 -35.5 14.5t-14.5 35.5zM1700 700v100h100v-100h-100z" />
<glyph unicode="&#xe018;" d="M200 50v2300q0 21 14.5 35.5t35.5 14.5h1250v-550q0 -21 14.5 -35.5t35.5 -14.5h550v-700h-1400q-41 0 -70.5 -29.5t-29.5 -70.5v-500q0 -41 29.5 -70.5t70.5 -29.5h1400v-350q0 -21 -14.5 -35.5t-35.5 -14.5h-1800q-21 0 -35.5 14.5t-14.5 35.5zM500 1600h300v100h-300 v-100zM500 1800h300v100h-300v-100zM500 2000h300v100h-300v-100zM800 500v500h100v-200h100v-100h-100v-200h-100zM900 1600h300v100h-300v-100zM900 1800h300v100h-300v-100zM900 2000h300v100h-300v-100zM1000 500h100v200h-100v-200zM1000 800h100v200h-100v-200z M1200 600v300l100 100h200v-100h-200v-100h200v-100h-200v-100h200v-100h-200zM1600 800v200h100v-200h100v200h100v-200l-100 -100v-200h-100v200zM1600 1950v450l500 -500h-450q-21 0 -35.5 14.5t-14.5 35.5z" />
<glyph unicode="&#xe019;" d="M200 50v2300q0 21 14.5 35.5t35.5 14.5h1250v-550q0 -21 14.5 -35.5t35.5 -14.5h550v-700h-1400q-41 0 -70.5 -29.5t-29.5 -70.5v-500q0 -41 29.5 -70.5t70.5 -29.5h1400v-350q0 -21 -14.5 -35.5t-35.5 -14.5h-1800q-21 0 -35.5 14.5t-14.5 35.5zM500 1600h300v100h-300 v-100zM500 1800h300v100h-300v-100zM500 2000h300v100h-300v-100zM800 500v500h200l100 -100v-200l-100 -100h-100v-100h-100zM900 700h100v200h-100v-200zM900 1600h300v100h-300v-100zM900 1800h300v100h-300v-100zM900 2000h300v100h-300v-100zM1200 500v500h200 l100 -100v-200l-100 -100h-100v-100h-100zM1300 700h100v200h-100v-200zM1600 900h100v-400h100v400h100v100h-300v-100zM1600 1950v450l500 -500h-450q-21 0 -35.5 14.5t-14.5 35.5z" />
<glyph unicode="&#xe020;" d="M200 50v2300q0 21 14.5 35.5t35.5 14.5h1250v-550q0 -21 14.5 -35.5t35.5 -14.5h550v-700h-1400q-41 0 -70.5 -29.5t-29.5 -70.5v-500q0 -41 29.5 -70.5t70.5 -29.5h1400v-350q0 -21 -14.5 -35.5t-35.5 -14.5h-1800q-21 0 -35.5 14.5t-14.5 35.5zM500 1600h300v100h-300 v-100zM500 1800h300v100h-300v-100zM500 2000h300v100h-300v-100zM800 500v500h200l100 -100v-200l-100 -100h-100v-100h-100zM900 700h100v200h-100v-200zM900 1600h300v100h-300v-100zM900 1800h300v100h-300v-100zM900 2000h300v100h-300v-100zM1200 500v500h200 l100 -100v-200l-100 -100h-100v-100h-100zM1300 700h100v200h-100v-200zM1600 900h100v-400h100v400h100v100h-300v-100zM1600 1950v450l500 -500h-450q-21 0 -35.5 14.5t-14.5 35.5zM2000 500h100v200h-100v-200zM2000 800h100v200h-100v-200zM2100 700h100v100h-100v-100z M2200 500h100v200h-100v-200zM2200 800h100v200h-100v-200z" />
<glyph unicode="&#xe021;" d="M200 50v2300q0 21 14.5 35.5t35.5 14.5h1250v-550q0 -21 14.5 -35.5t35.5 -14.5h550v-700h-1400q-41 0 -70.5 -29.5t-29.5 -70.5v-500q0 -41 29.5 -70.5t70.5 -29.5h1400v-350q0 -21 -14.5 -35.5t-35.5 -14.5h-1800q-21 0 -35.5 14.5t-14.5 35.5zM500 1600h300v100h-300 v-100zM500 1800h300v100h-300v-100zM500 2000h300v100h-300v-100zM800 500v100h200v100h100v-100l-100 -100h-200zM800 800v100l100 100h200v-100h-200v-100h-100zM900 700v100h100v-100h-100zM900 1600h300v100h-300v-100zM900 1800h300v100h-300v-100zM900 2000h300v100 h-300v-100zM1200 500v500h200l100 -100v-300l-100 -100h-200zM1300 600h100v300h-100v-300zM1600 500v400l100 100h200v-100h-200v-100h200v-100h-200v-200h-100zM1600 1950v450l500 -500h-450q-21 0 -35.5 14.5t-14.5 35.5z" />
<glyph unicode="&#xe022;" d="M200 50v2300q0 21 14.5 35.5t35.5 14.5h1250v-550q0 -21 14.5 -35.5t35.5 -14.5h550v-700h-1400q-41 0 -70.5 -29.5t-29.5 -70.5v-500q0 -41 29.5 -70.5t70.5 -29.5h1400v-350q0 -21 -14.5 -35.5t-35.5 -14.5h-1800q-21 0 -35.5 14.5t-14.5 35.5zM500 1600h300v100h-300 v-100zM500 1800h300v100h-300v-100zM500 2000h300v100h-300v-100zM800 500v500h300v-100h-200v-300h100v200h100v-300h-300zM900 1600h300v100h-300v-100zM900 1800h300v100h-300v-100zM900 2000h300v100h-300v-100zM1200 500v500h200l100 -100v-100l-50 -50l50 -50v-100 l-100 -100h-200zM1300 600h100v100h-100v-100zM1300 800h100v100h-100v-100zM1600 500h100v100h100l-100 100v200h100v-200h100v200l-100 100h-200v-500zM1600 1950v450l500 -500h-450q-21 0 -35.5 14.5t-14.5 35.5zM1800 500v100h100v-100h-100z" />
<glyph unicode="&#xe023;" d="M200 50v2300q0 21 14.5 35.5t35.5 14.5h1250v-550q0 -21 14.5 -35.5t35.5 -14.5h550v-700h-1400q-41 0 -70.5 -29.5t-29.5 -70.5v-500q0 -41 29.5 -70.5t70.5 -29.5h1400v-350q0 -21 -14.5 -35.5t-35.5 -14.5h-1800q-21 0 -35.5 14.5t-14.5 35.5zM500 1600h300v100h-300 v-100zM500 1800h300v100h-300v-100zM500 2000h300v100h-300v-100zM800 500v500h300v-100h-200v-300h100v200h100v-300h-300zM900 1600h300v100h-300v-100zM900 1800h300v100h-300v-100zM900 2000h300v100h-300v-100zM1200 600v300l100 100h200v-100h-200v-100h200v-100h-200 v-100h200v-100h-200zM1600 500v500h200l100 -100v-300l-100 -100h-200zM1600 1950v450l500 -500h-450q-21 0 -35.5 14.5t-14.5 35.5zM1700 600h100v300h-100v-300z" />
<glyph unicode="&#xe024;" d="M200 50v2300q0 21 14.5 35.5t35.5 14.5h1250v-550q0 -21 14.5 -35.5t35.5 -14.5h550v-700h-1400q-41 0 -70.5 -29.5t-29.5 -70.5v-500q0 -41 29.5 -70.5t70.5 -29.5h1400v-350q0 -21 -14.5 -35.5t-35.5 -14.5h-1800q-21 0 -35.5 14.5t-14.5 35.5zM500 1600h250l350 -200 v700l-350 -200h-250v-300zM800 500v500h100v-100h100v100h100v-500h-100v300h-100v-300h-100zM1200 500v500h200l100 -100v-200l-100 -100h-100v-100h-100zM1300 700h100v200h-100v-200zM1600 500v100h200v100h-200v100h200v100h-200v100h300v-500h-300zM1600 1950v450 l500 -500h-450q-21 0 -35.5 14.5t-14.5 35.5z" />
<glyph unicode="&#xe025;" d="M200 50v2300q0 21 14.5 35.5t35.5 14.5h1250v-550q0 -21 14.5 -35.5t35.5 -14.5h550v-700h-1400q-41 0 -70.5 -29.5t-29.5 -70.5v-500q0 -41 29.5 -70.5t70.5 -29.5h1400v-350q0 -21 -14.5 -35.5t-35.5 -14.5h-1800q-21 0 -35.5 14.5t-14.5 35.5zM500 1600h250l350 -200 v700l-350 -200h-250v-300zM800 500v500h100v-100h100v100h100v-500h-100v300h-100v-300h-100zM1200 600h200v-100h100v500h-100v-300h-100v300h-100v-400zM1600 500v400l100 100h100l100 -100v-400h-100v100h-100v-100h-100zM1600 1950v450l500 -500h-450q-21 0 -35.5 14.5 t-14.5 35.5zM1700 700h100v200h-100v-200z" />
<glyph unicode="&#xe026;" d="M200 50v2300q0 21 14.5 35.5t35.5 14.5h1250v-550q0 -21 14.5 -35.5t35.5 -14.5h550v-700h-1400q-41 0 -70.5 -29.5t-29.5 -70.5v-500q0 -41 29.5 -70.5t70.5 -29.5h1400v-350q0 -21 -14.5 -35.5t-35.5 -14.5h-1800q-21 0 -35.5 14.5t-14.5 35.5zM500 1600h250l350 -200 v700l-350 -200h-250v-300zM800 500v500h100v-300h100v300h100v-500h-100v100h-100v-100h-100zM1200 500v400l100 100h100l100 -100v-400h-100v100h-100v-100h-100zM1300 700h100v200h-100v-200zM1600 500v500h100v-300h100v300h100v-500h-100v100h-100v-100h-100zM1600 1950 v450l500 -500h-450q-21 0 -35.5 14.5t-14.5 35.5z" />
<glyph unicode="&#xe027;" d="M200 50v2300q0 21 14.5 35.5t35.5 14.5h1250v-550q0 -21 14.5 -35.5t35.5 -14.5h550v-700h-1400q-41 0 -70.5 -29.5t-29.5 -70.5v-500q0 -41 29.5 -70.5t70.5 -29.5h1400v-350q0 -21 -14.5 -35.5t-35.5 -14.5h-1800q-21 0 -35.5 14.5t-14.5 35.5zM500 1600h250l350 -200 v700l-350 -200h-250v-300zM800 500v500h100v-300h100v300h100v-500h-100v100h-100v-100h-100zM1200 500h100v300h100v-300h100v500h-100v-100h-100v100h-100v-500zM1600 500v400l100 100h100l100 -100v-400h-100v100h-100v-100h-100zM1600 1950v450l500 -500h-450 q-21 0 -35.5 14.5t-14.5 35.5zM1700 700h100v200h-100v-200z" />
<glyph unicode="&#xe028;" d="M200 50v2300q0 21 14.5 35.5t35.5 14.5h1250v-550q0 -21 14.5 -35.5t35.5 -14.5h550v-700h-1400q-41 0 -70.5 -29.5t-29.5 -70.5v-500q0 -41 29.5 -70.5t70.5 -29.5h1400v-350q0 -21 -14.5 -35.5t-35.5 -14.5h-1800q-21 0 -35.5 14.5t-14.5 35.5zM500 1600h250l350 -200 v700l-350 -200h-250v-300zM800 500h100v300h100v-300h100v500h-100v-100h-100v100h-100v-500zM1200 500v500h200l100 -100v-200l-100 -100h-100v-100h-100zM1300 700h100v200h-100v-200zM1600 500v400l100 100h100l100 -100v-400h-100v100h-100v-100h-100zM1600 1950v450 l500 -500h-450q-21 0 -35.5 14.5t-14.5 35.5zM1700 700h100v200h-100v-200z" />
<glyph unicode="&#xe029;" d="M200 50v2300q0 21 14.5 35.5t35.5 14.5h1250v-550q0 -21 14.5 -35.5t35.5 -14.5h550v-700h-1400q-41 0 -70.5 -29.5t-29.5 -70.5v-500q0 -41 29.5 -70.5t70.5 -29.5h1400v-350q0 -21 -14.5 -35.5t-35.5 -14.5h-1800q-21 0 -35.5 14.5t-14.5 35.5zM500 1600h250l350 -200 v700l-350 -200h-250v-300zM800 500v500h100v-500h-100zM1000 500v400l100 100h200v-100h-200v-100h200v-100h-200v-200h-100zM1400 500v400l100 100h200v-100h-200v-100h200v-100h-200v-200h-100zM1600 1950v450l500 -500h-450q-21 0 -35.5 14.5t-14.5 35.5z" />
<glyph unicode="&#xe030;" d="M200 50v2300q0 21 14.5 35.5t35.5 14.5h1250v-550q0 -21 14.5 -35.5t35.5 -14.5h550v-700h-1400q-41 0 -70.5 -29.5t-29.5 -70.5v-500q0 -41 29.5 -70.5t70.5 -29.5h1400v-350q0 -21 -14.5 -35.5t-35.5 -14.5h-1800q-21 0 -35.5 14.5t-14.5 35.5zM500 1600h250l350 -200 v700l-350 -200h-250v-300zM800 500v400l100 100h100l100 -100v-400h-100v100h-100v-100h-100zM900 700h100v200h-100v-200zM1200 500h100v500h-100v-500zM1400 500v400l100 100h200v-100h-200v-100h200v-100h-200v-200h-100zM1600 1950v450l500 -500h-450q-21 0 -35.5 14.5 t-14.5 35.5z" />
<glyph unicode="&#xe031;" d="M200 50v2300q0 21 14.5 35.5t35.5 14.5h1250v-550q0 -21 14.5 -35.5t35.5 -14.5h550v-700h-1400q-41 0 -70.5 -29.5t-29.5 -70.5v-500q0 -41 29.5 -70.5t70.5 -29.5h1400v-350q0 -21 -14.5 -35.5t-35.5 -14.5h-1800q-21 0 -35.5 14.5t-14.5 35.5zM500 1600h250l350 -200 v700l-350 -200h-250v-300zM800 500v500h200l100 -100v-200h-100v200h-100v-200l100 -100h-100v-100h-100zM1000 500v100h100v-100h-100zM1200 500v400l100 100h100l100 -100v-400h-100v100h-100v-100h-100zM1300 700h100v200h-100v-200zM1600 1950v450l500 -500h-450 q-21 0 -35.5 14.5t-14.5 35.5z" />
<glyph unicode="&#xe032;" d="M200 50v2300q0 21 14.5 35.5t35.5 14.5h1250v-550q0 -21 14.5 -35.5t35.5 -14.5h550v-700h-1400q-41 0 -70.5 -29.5t-29.5 -70.5v-500q0 -41 29.5 -70.5t70.5 -29.5h1400v-350q0 -21 -14.5 -35.5t-35.5 -14.5h-1800q-21 0 -35.5 14.5t-14.5 35.5zM500 1600h250l350 -200 v700l-350 -200h-250v-300zM800 500h100v300h100v-300h100v500h-100v-100h-100v100h-100v-500zM1200 500h100v500h-100v-500zM1400 500v500h200l100 -100v-300l-100 -100h-200zM1500 600h100v300h-100v-300zM1600 1950v450l500 -500h-450q-21 0 -35.5 14.5t-14.5 35.5z" />
<glyph unicode="&#xe033;" d="M200 50v2300q0 21 14.5 35.5t35.5 14.5h1250v-550q0 -21 14.5 -35.5t35.5 -14.5h550v-700h-1400q-41 0 -70.5 -29.5t-29.5 -70.5v-500q0 -41 29.5 -70.5t70.5 -29.5h1400v-350q0 -21 -14.5 -35.5t-35.5 -14.5h-1800q-21 0 -35.5 14.5t-14.5 35.5zM500 1600h250l350 -200 v700l-350 -200h-250v-300zM800 500h100v300h100v-300h100v500h-100v-100h-100v100h-100v-500zM1200 500h300v500h-300v-100h200v-100h-200v-100h200v-100h-200v-100zM1600 600v400h100v-400h100v400h100v-400l-100 -100h-100zM1600 1950v450l500 -500h-450q-21 0 -35.5 14.5 t-14.5 35.5z" />
<glyph unicode="&#xe034;" d="M200 50v2300q0 21 14.5 35.5t35.5 14.5h1250v-550q0 -21 14.5 -35.5t35.5 -14.5h550v-700h-1400q-41 0 -70.5 -29.5t-29.5 -70.5v-500q0 -41 29.5 -70.5t70.5 -29.5h1400v-350q0 -21 -14.5 -35.5t-35.5 -14.5h-1800q-21 0 -35.5 14.5t-14.5 35.5zM500 1444l500 306 l-500 306v-612zM800 500h300v500h-300v-100h200v-100h-200v-100h200v-100h-200v-100zM1200 500v500h300v-100h-200v-300h100v200h100v-300h-300zM1600 500v500h200l100 -100v-200l-100 -100h-100v-100h-100zM1600 1950q0 -21 14.5 -35.5t35.5 -14.5h450l-500 500v-450z M1700 700h100v200h-100v-200z" />
<glyph unicode="&#xe035;" d="M200 50v2300q0 21 14.5 35.5t35.5 14.5h1250v-550q0 -21 14.5 -35.5t35.5 -14.5h550v-700h-1400q-41 0 -70.5 -29.5t-29.5 -70.5v-500q0 -41 29.5 -70.5t70.5 -29.5h1400v-350q0 -21 -14.5 -35.5t-35.5 -14.5h-1800q-21 0 -35.5 14.5t-14.5 35.5zM500 1444l500 306 l-500 306v-612zM800 500v100h200v100h100v-100l-100 -100h-200zM800 800v100l100 100h200v-100h-200v-100h-100zM900 700v100h100v-100h-100zM1200 500v500h100v-300h100v300h100v-500h-100v100h-100v-100h-100zM1600 500v400l100 100h200v-100h-200v-100h200v-100h-200 v-200h-100zM1600 1950q0 -21 14.5 -35.5t35.5 -14.5h450l-500 500v-450z" />
<glyph unicode="&#xe036;" d="M200 50v2300q0 21 14.5 35.5t35.5 14.5h1250v-550q0 -21 14.5 -35.5t35.5 -14.5h550v-700h-1400q-41 0 -70.5 -29.5t-29.5 -70.5v-500q0 -41 29.5 -70.5t70.5 -29.5h1400v-350q0 -21 -14.5 -35.5t-35.5 -14.5h-1800q-21 0 -35.5 14.5t-14.5 35.5zM500 1444l500 306 l-500 306v-612zM800 500v400l100 100h100l100 -100v-400h-100v100h-100v-100h-100zM900 700h100v200h-100v-200zM1200 500v500h100v-400h100v-100h-200zM1400 600v400h100v-400h-100zM1600 500v500h100v-500h-100zM1600 1950q0 -21 14.5 -35.5t35.5 -14.5h450l-500 500v-450 z" />
<glyph unicode="&#xe037;" d="M200 50v2300q0 21 14.5 35.5t35.5 14.5h1250v-550q0 -21 14.5 -35.5t35.5 -14.5h550v-700h-1400q-41 0 -70.5 -29.5t-29.5 -70.5v-500q0 -41 29.5 -70.5t70.5 -29.5h1400v-350q0 -21 -14.5 -35.5t-35.5 -14.5h-1800q-21 0 -35.5 14.5t-14.5 35.5zM500 1444l500 306 l-500 306v-612zM800 500v400l100 100h100l100 -100v-400h-100v100h-100v-100h-100zM900 700h100v200h-100v-200zM1200 500v100h200v100h100v-100l-100 -100h-200zM1200 800v100l100 100h200v-100h-200v-100h-100zM1300 700v100h100v-100h-100zM1600 500h100v200h-100v-200z M1600 800h100v200h-100v-200zM1600 1950q0 -21 14.5 -35.5t35.5 -14.5h450l-500 500v-450zM1700 700h100v100h-100v-100zM1800 500h100v200h-100v-200zM1800 800h100v200h-100v-200z" />
<glyph unicode="&#xe038;" d="M200 50v2300q0 21 14.5 35.5t35.5 14.5h1250v-550q0 -21 14.5 -35.5t35.5 -14.5h550v-700h-1400q-41 0 -70.5 -29.5t-29.5 -70.5v-500q0 -41 29.5 -70.5t70.5 -29.5h1400v-350q0 -21 -14.5 -35.5t-35.5 -14.5h-1800q-21 0 -35.5 14.5t-14.5 35.5zM500 1444l500 306 l-500 306v-612zM800 500h100v300h100v-300h100v500h-100v-100h-100v100h-100v-500zM1200 500v500h200l100 -100v-200l-100 -100h-100v-100h-100zM1300 700h100v200h-100v-200zM1600 600h200v-100h100v500h-100v-300h-100v300h-100v-400zM1600 1950q0 -21 14.5 -35.5 t35.5 -14.5h450l-500 500v-450z" />
<glyph unicode="&#xe039;" d="M200 50v2300q0 21 14.5 35.5t35.5 14.5h1250v-550q0 -21 14.5 -35.5t35.5 -14.5h550v-700h-1400q-41 0 -70.5 -29.5t-29.5 -70.5v-500q0 -41 29.5 -70.5t70.5 -29.5h1400v-350q0 -21 -14.5 -35.5t-35.5 -14.5h-1800q-21 0 -35.5 14.5t-14.5 35.5zM500 1444l500 306 l-500 306v-612zM800 500h300v500h-300v-100h200v-100h-200v-100h200v-100h-200v-100zM1200 500v500h300v-100h-200v-300h100v200h100v-300h-300zM1600 500h300v100h-200v100h200v300h-300v-100h200v-100h-200v-300zM1600 1950q0 -21 14.5 -35.5t35.5 -14.5h450l-500 500 v-450z" />
<glyph unicode="&#xe040;" d="M200 50v2300q0 21 14.5 35.5t35.5 14.5h1250v-550q0 -21 14.5 -35.5t35.5 -14.5h550v-700h-1400q-41 0 -70.5 -29.5t-29.5 -70.5v-500q0 -41 29.5 -70.5t70.5 -29.5h1400v-350q0 -21 -14.5 -35.5t-35.5 -14.5h-1800q-21 0 -35.5 14.5t-14.5 35.5zM500 1444l500 306 l-500 306v-612zM800 500v500h100v-100h100v100h100v-500h-100v300h-100v-300h-100zM1200 500v500h200l100 -100v-200l-100 -100h-100v-100h-100zM1300 700h100v200h-100v-200zM1600 500v500h300v-100h-200v-300h100v200h100v-300h-300zM1600 1950q0 -21 14.5 -35.5 t35.5 -14.5h450l-500 500v-450z" />
<glyph unicode="&#xe041;" d="M200 50v2300q0 21 14.5 35.5t35.5 14.5h1250v-550q0 -21 14.5 -35.5t35.5 -14.5h550v-700h-1400q-41 0 -70.5 -29.5t-29.5 -70.5v-500q0 -41 29.5 -70.5t70.5 -29.5h1400v-350q0 -21 -14.5 -35.5t-35.5 -14.5h-1800q-21 0 -35.5 14.5t-14.5 35.5zM500 1444l500 306 l-500 306v-612zM800 500v400l100 100h100l100 -100v-400h-100v100h-100v-100h-100zM900 700h100v200h-100v-200zM1200 500v100h200v100h100v-100l-100 -100h-200zM1200 800v100l100 100h200v-100h-200v-100h-100zM1300 700v100h100v-100h-100zM1600 500v500h300v-100h-200 v-100h200v-100h-200v-200h-100zM1600 1950q0 -21 14.5 -35.5t35.5 -14.5h450l-500 500v-450z" />
<glyph unicode="&#xe042;" d="M200 50v2300q0 21 14.5 35.5t35.5 14.5h1250v-550q0 -21 14.5 -35.5t35.5 -14.5h550v-700h-1400q-41 0 -70.5 -29.5t-29.5 -70.5v-500q0 -41 29.5 -70.5t70.5 -29.5h1400v-350q0 -21 -14.5 -35.5t-35.5 -14.5h-1800q-21 0 -35.5 14.5t-14.5 35.5zM500 1444l500 306 l-500 306v-612zM800 500h200v100h-100v400h-100v-500zM1000 600v400h100v-400h-100zM1200 600v300l100 100h100l100 -100v-300l-100 -100h-100zM1300 600h100v300h-100v-300zM1600 500v500h200l100 -100v-100l-50 -50l50 -50v-100l-100 -100h-200zM1600 1950 q0 -21 14.5 -35.5t35.5 -14.5h450l-500 500v-450zM1700 600h100v100h-100v-100zM1700 800h100v100h-100v-100z" />
<glyph unicode="&#xe043;" d="M200 50v2300q0 21 14.5 35.5t35.5 14.5h1250v-550q0 -21 14.5 -35.5t35.5 -14.5h550v-700h-1400q-41 0 -70.5 -29.5t-29.5 -70.5v-500q0 -41 29.5 -70.5t70.5 -29.5h1400v-350q0 -21 -14.5 -35.5t-35.5 -14.5h-1800q-21 0 -35.5 14.5t-14.5 35.5zM500 1444l500 306 l-500 306v-612zM800 500v500h100v-300h100v300h100v-500h-100v100h-100v-100h-100zM1200 500h100v300h100v-300h100v500h-100v-100h-100v100h-100v-500zM1600 500v500h100v-400h100v-100h-200zM1600 1950q0 -21 14.5 -35.5t35.5 -14.5h450l-500 500v-450zM1800 600v400h100 v-400h-100z" />
<glyph unicode="&#xe044;" d="M200 50v2300q0 21 14.5 35.5t35.5 14.5h1250v-550q0 -21 14.5 -35.5t35.5 -14.5h550v-700h-1400q-41 0 -70.5 -29.5t-29.5 -70.5v-500q0 -41 29.5 -70.5t70.5 -29.5h1400v-350q0 -21 -14.5 -35.5t-35.5 -14.5h-1800q-21 0 -35.5 14.5t-14.5 35.5zM500 1444l500 306 l-500 306v-612zM800 500h100v300h100v-300h100v500h-100v-100h-100v100h-100v-500zM1200 600v300l100 100h100l100 -100v-300l-100 -100h-100zM1300 600h100v300h-100v-300zM1600 500v500h100v-400h100v-100h-200zM1600 1950q0 -21 14.5 -35.5t35.5 -14.5h450l-500 500v-450 zM1800 600v400h100v-400h-100z" />
<glyph unicode="&#xe045;" d="M200 50v2300q0 21 14.5 35.5t35.5 14.5h1250v-550q0 -21 14.5 -35.5t35.5 -14.5h550v-700h-1400q-41 0 -70.5 -29.5t-29.5 -70.5v-500q0 -41 29.5 -70.5t70.5 -29.5h1400v-350q0 -21 -14.5 -35.5t-35.5 -14.5h-1800q-21 0 -35.5 14.5t-14.5 35.5zM500 1444l500 306 l-500 306v-612zM800 500v100h200v100h100v-100l-100 -100h-200zM800 800v100l100 100h200v-100h-200v-100h-100zM900 700v100h100v-100h-100zM1200 500h100v100h100l-100 100v200h100v-200h100v200l-100 100h-200v-500zM1400 500v100h100v-100h-100zM1600 900h100v-400h100 v400h100v100h-300v-100zM1600 1950q0 -21 14.5 -35.5t35.5 -14.5h450l-500 500v-450z" />
<glyph unicode="&#xe046;" d="M200 50v2300q0 21 14.5 35.5t35.5 14.5h1250v-550q0 -21 14.5 -35.5t35.5 -14.5h550v-700h-1400q-41 0 -70.5 -29.5t-29.5 -70.5v-500q0 -41 29.5 -70.5t70.5 -29.5h1400v-350q0 -21 -14.5 -35.5t-35.5 -14.5h-1800q-21 0 -35.5 14.5t-14.5 35.5zM500 1444l500 306 l-500 306v-612zM800 500h100v300h100v-300h100v500h-100v-100h-100v100h-100v-500zM1200 600h200v-100h100v500h-100v-300h-100v300h-100v-400zM1600 500h200v100h-100v400h-100v-500zM1600 1950q0 -21 14.5 -35.5t35.5 -14.5h450l-500 500v-450zM1800 600h100v400h-100 v-400z" />
<glyph unicode="&#xe047;" d="M200 50v2300q0 21 14.5 35.5t35.5 14.5h1250v-550q0 -21 14.5 -35.5t35.5 -14.5h550v-700h-1400q-41 0 -70.5 -29.5t-29.5 -70.5v-500q0 -41 29.5 -70.5t70.5 -29.5h1400v-350q0 -21 -14.5 -35.5t-35.5 -14.5h-1800q-21 0 -35.5 14.5t-14.5 35.5zM500 1444l500 306 l-500 306v-612zM800 500v400l100 100h200v-100h-200v-100h200v-100h-200v-200h-100zM1200 600v400h100v-400h200v-100h-200zM1600 500h200v100h-100v400h-100v-500zM1600 1950q0 -21 14.5 -35.5t35.5 -14.5h450l-500 500v-450zM1800 600h100v400h-100v-400z" />
<glyph unicode="&#xe048;" d="M200 50v2300q0 21 14.5 35.5t35.5 14.5h1250v-550q0 -21 14.5 -35.5t35.5 -14.5h550v-700h-1400q-41 0 -70.5 -29.5t-29.5 -70.5v-500q0 -41 29.5 -70.5t70.5 -29.5h1400v-350q0 -21 -14.5 -35.5t-35.5 -14.5h-1800q-21 0 -35.5 14.5t-14.5 35.5zM500 1444l500 306 l-500 306v-612zM800 500h100v100h100l-100 100v200h100v-200h100v200l-100 100h-200v-500zM1000 500v100h100v-100h-100zM1200 500h100v300h100v-300h100v500h-100v-100h-100v100h-100v-500zM1600 1950q0 -21 14.5 -35.5t35.5 -14.5h450l-500 500v-450z" />
<glyph unicode="&#xe049;" d="M200 50v2300q0 21 14.5 35.5t35.5 14.5h1250v-550q0 -21 14.5 -35.5t35.5 -14.5h550v-700h-1400q-41 0 -70.5 -29.5t-29.5 -70.5v-500q0 -41 29.5 -70.5t70.5 -29.5h1400v-350q0 -21 -14.5 -35.5t-35.5 -14.5h-1800q-21 0 -35.5 14.5t-14.5 35.5zM500 1544q0 -18 13 -31 t31 -13h612q18 0 31 13t13 31v512q0 18 -13 31t-31 13h-612q-18 0 -31 -13t-13 -31v-512zM600 1640v360h500v-360l-142 228l-100 -165zM665 1849q0 -35 24.5 -59.5t59.5 -24.5t59.5 24.5t24.5 59.5t-24.5 59.5t-59.5 24.5t-59.5 -24.5t-24.5 -59.5zM800 500v500h200 l100 -100v-200l-100 -100h-100v-100h-100zM900 700h100v200h-100v-200zM1200 500h100v400h100v100h-200v-500zM1400 500h100v400h-100v-400zM1600 500v500h300v-100h-200v-300h100v200h100v-300h-300zM1600 1950v450l500 -500h-450q-21 0 -35.5 14.5t-14.5 35.5z" />
<glyph unicode="&#xe050;" d="M200 50v2300q0 21 14.5 35.5t35.5 14.5h1250v-550q0 -21 14.5 -35.5t35.5 -14.5h550v-700h-1400q-41 0 -70.5 -29.5t-29.5 -70.5v-500q0 -41 29.5 -70.5t70.5 -29.5h1400v-350q0 -21 -14.5 -35.5t-35.5 -14.5h-1800q-21 0 -35.5 14.5t-14.5 35.5zM500 1544q0 -18 13 -31 t31 -13h612q18 0 31 13t13 31v512q0 18 -13 31t-31 13h-612q-18 0 -31 -13t-13 -31v-512zM600 1640v360h500v-360l-142 228l-100 -165zM665 1849q0 -35 24.5 -59.5t59.5 -24.5t59.5 24.5t24.5 59.5t-24.5 59.5t-59.5 24.5t-59.5 -24.5t-24.5 -59.5zM800 500v500h200 l100 -100v-200l-100 -100h-100v-100h-100zM900 700h100v200h-100v-200zM1200 500v100h200v100h100v-100l-100 -100h-200zM1200 800v100l100 100h200v-100h-200v-100h-100zM1300 700v100h100v-100h-100zM1600 500v500h200l100 -100v-300l-100 -100h-200zM1600 1950v450 l500 -500h-450q-21 0 -35.5 14.5t-14.5 35.5zM1700 600h100v300h-100v-300z" />
<glyph unicode="&#xe051;" d="M200 50v2300q0 21 14.5 35.5t35.5 14.5h1250v-550q0 -21 14.5 -35.5t35.5 -14.5h550v-700h-1400q-41 0 -70.5 -29.5t-29.5 -70.5v-500q0 -41 29.5 -70.5t70.5 -29.5h1400v-350q0 -21 -14.5 -35.5t-35.5 -14.5h-1800q-21 0 -35.5 14.5t-14.5 35.5zM500 1544q0 -18 13 -31 t31 -13h612q18 0 31 13t13 31v512q0 18 -13 31t-31 13h-612q-18 0 -31 -13t-13 -31v-512zM600 1640v360h500v-360l-142 228l-100 -165zM665 1849q0 -35 24.5 -59.5t59.5 -24.5t59.5 24.5t24.5 59.5t-24.5 59.5t-59.5 24.5t-59.5 -24.5t-24.5 -59.5zM800 500v500h200 l100 -100v-200l-100 -100h-100v-100h-100zM900 700h100v200h-100v-200zM1200 500v100h200v100h100v-100l-100 -100h-200zM1200 800v100l100 100h200v-100h-200v-100h-100zM1300 700v100h100v-100h-100zM1600 500v500h200l100 -100v-200l-100 -100h-100v-100h-100zM1600 1950 v450l500 -500h-450q-21 0 -35.5 14.5t-14.5 35.5zM1700 700h100v200h-100v-200z" />
<glyph unicode="&#xe052;" d="M200 50v2300q0 21 14.5 35.5t35.5 14.5h1250v-550q0 -21 14.5 -35.5t35.5 -14.5h550v-700h-1400q-41 0 -70.5 -29.5t-29.5 -70.5v-500q0 -41 29.5 -70.5t70.5 -29.5h1400v-350q0 -21 -14.5 -35.5t-35.5 -14.5h-1800q-21 0 -35.5 14.5t-14.5 35.5zM500 1544q0 -18 13 -31 t31 -13h612q18 0 31 13t13 31v512q0 18 -13 31t-31 13h-612q-18 0 -31 -13t-13 -31v-512zM600 1640v360h500v-360l-142 228l-100 -165zM665 1849q0 -35 24.5 -59.5t59.5 -24.5t59.5 24.5t24.5 59.5t-24.5 59.5t-59.5 24.5t-59.5 -24.5t-24.5 -59.5zM800 600v200h100v-200 h100v400h100v-400l-100 -100h-100zM1200 500v500h200l100 -100v-200l-100 -100h-100v-100h-100zM1300 700h100v200h-100v-200zM1600 500v500h300v-100h-200v-300h100v200h100v-300h-300zM1600 1950v450l500 -500h-450q-21 0 -35.5 14.5t-14.5 35.5z" />
<glyph unicode="&#xe053;" d="M200 50v2300q0 21 14.5 35.5t35.5 14.5h1250v-550q0 -21 14.5 -35.5t35.5 -14.5h550v-700h-1400q-41 0 -70.5 -29.5t-29.5 -70.5v-500q0 -41 29.5 -70.5t70.5 -29.5h1400v-350q0 -21 -14.5 -35.5t-35.5 -14.5h-1800q-21 0 -35.5 14.5t-14.5 35.5zM500 1544q0 -18 13 -31 t31 -13h612q18 0 31 13t13 31v512q0 18 -13 31t-31 13h-612q-18 0 -31 -13t-13 -31v-512zM600 1640v360h500v-360l-142 228l-100 -165zM665 1849q0 -35 24.5 -59.5t59.5 -24.5t59.5 24.5t24.5 59.5t-24.5 59.5t-59.5 24.5t-59.5 -24.5t-24.5 -59.5zM800 900h100v-400h100 v400h100v100h-300v-100zM1200 500h100v500h-100v-500zM1400 500v400l100 100h200v-100h-200v-100h200v-100h-200v-200h-100zM1600 1950v450l500 -500h-450q-21 0 -35.5 14.5t-14.5 35.5z" />
<glyph unicode="&#xe054;" d="M200 50v2300q0 21 14.5 35.5t35.5 14.5h1250v-550q0 -21 14.5 -35.5t35.5 -14.5h550v-700h-1400q-41 0 -70.5 -29.5t-29.5 -70.5v-500q0 -41 29.5 -70.5t70.5 -29.5h1400v-350q0 -21 -14.5 -35.5t-35.5 -14.5h-1800q-21 0 -35.5 14.5t-14.5 35.5zM500 1544q0 -18 13 -31 t31 -13h612q18 0 31 13t13 31v512q0 18 -13 31t-31 13h-612q-18 0 -31 -13t-13 -31v-512zM600 1640v360h500v-360l-142 228l-100 -165zM665 1849q0 -35 24.5 -59.5t59.5 -24.5t59.5 24.5t24.5 59.5t-24.5 59.5t-59.5 24.5t-59.5 -24.5t-24.5 -59.5zM800 900h100v-400h100 v400h100v100h-300v-100zM1200 500h100v500h-100v-500zM1400 500v400l100 100h200v-100h-200v-100h200v-100h-200v-200h-100zM1600 1950v450l500 -500h-450q-21 0 -35.5 14.5t-14.5 35.5zM1800 500v400l100 100h200v-100h-200v-100h200v-100h-200v-200h-100z" />
<glyph unicode="&#xe055;" d="M200 50v2300q0 21 14.5 35.5t35.5 14.5h1250v-550q0 -21 14.5 -35.5t35.5 -14.5h550v-700h-1400q-41 0 -70.5 -29.5t-29.5 -70.5v-500q0 -41 29.5 -70.5t70.5 -29.5h1400v-350q0 -21 -14.5 -35.5t-35.5 -14.5h-1800q-21 0 -35.5 14.5t-14.5 35.5zM500 1544q0 -18 13 -31 t31 -13h612q18 0 31 13t13 31v512q0 18 -13 31t-31 13h-612q-18 0 -31 -13t-13 -31v-512zM600 1640v360h500v-360l-142 228l-100 -165zM665 1849q0 -35 24.5 -59.5t59.5 -24.5t59.5 24.5t24.5 59.5t-24.5 59.5t-59.5 24.5t-59.5 -24.5t-24.5 -59.5zM800 500v500h300v-100 h-200v-300h100v200h100v-300h-300zM1200 500h100v500h-100v-500zM1400 500v400l100 100h200v-100h-200v-100h200v-100h-200v-200h-100zM1600 1950v450l500 -500h-450q-21 0 -35.5 14.5t-14.5 35.5z" />
<glyph unicode="&#xe056;" d="M200 50v2300q0 21 14.5 35.5t35.5 14.5h1250v-550q0 -21 14.5 -35.5t35.5 -14.5h550v-700h-1400q-41 0 -70.5 -29.5t-29.5 -70.5v-500q0 -41 29.5 -70.5t70.5 -29.5h1400v-350q0 -21 -14.5 -35.5t-35.5 -14.5h-1800q-21 0 -35.5 14.5t-14.5 35.5zM500 1544q0 -18 13 -31 t31 -13h612q18 0 31 13t13 31v512q0 18 -13 31t-31 13h-612q-18 0 -31 -13t-13 -31v-512zM600 1640v360h500v-360l-142 228l-100 -165zM665 1849q0 -35 24.5 -59.5t59.5 -24.5t59.5 24.5t24.5 59.5t-24.5 59.5t-59.5 24.5t-59.5 -24.5t-24.5 -59.5zM800 500v500h200 l100 -100v-100l-50 -50l50 -50v-100l-100 -100h-200zM900 600h100v100h-100v-100zM900 800h100v100h-100v-100zM1200 500h100v300h100v-300h100v500h-100v-100h-100v100h-100v-500zM1600 500v500h200l100 -100v-200l-100 -100h-100v-100h-100zM1600 1950v450l500 -500h-450 q-21 0 -35.5 14.5t-14.5 35.5zM1700 700h100v200h-100v-200z" />
<glyph unicode="&#xe057;" d="M200 50v2300q0 21 14.5 35.5t35.5 14.5h1250v-550q0 -21 14.5 -35.5t35.5 -14.5h550v-700h-1400q-41 0 -70.5 -29.5t-29.5 -70.5v-500q0 -41 29.5 -70.5t70.5 -29.5h1400v-350q0 -21 -14.5 -35.5t-35.5 -14.5h-1800q-21 0 -35.5 14.5t-14.5 35.5zM500 1544q0 -18 13 -31 t31 -13h612q18 0 31 13t13 31v512q0 18 -13 31t-31 13h-612q-18 0 -31 -13t-13 -31v-512zM600 1640v360h500v-360l-142 228l-100 -165zM665 1849q0 -35 24.5 -59.5t59.5 -24.5t59.5 24.5t24.5 59.5t-24.5 59.5t-59.5 24.5t-59.5 -24.5t-24.5 -59.5zM800 900h100v-400h100 v400h100v100h-300v-100zM1200 500v500h300v-100h-200v-300h100v200h100v-300h-300zM1600 500v400l100 100h100l100 -100v-400h-100v100h-100v-100h-100zM1600 1950v450l500 -500h-450q-21 0 -35.5 14.5t-14.5 35.5zM1700 700h100v200h-100v-200z" />
<glyph unicode="&#xe058;" d="M200 50v2300q0 21 14.5 35.5t35.5 14.5h1250v-550q0 -21 14.5 -35.5t35.5 -14.5h550v-700h-1400q-41 0 -70.5 -29.5t-29.5 -70.5v-500q0 -41 29.5 -70.5t70.5 -29.5h1400v-350q0 -21 -14.5 -35.5t-35.5 -14.5h-1800q-21 0 -35.5 14.5t-14.5 35.5zM500 1544q0 -18 13 -31 t31 -13h612q18 0 31 13t13 31v512q0 18 -13 31t-31 13h-612q-18 0 -31 -13t-13 -31v-512zM600 1640v360h500v-360l-142 228l-100 -165zM665 1849q0 -35 24.5 -59.5t59.5 -24.5t59.5 24.5t24.5 59.5t-24.5 59.5t-59.5 24.5t-59.5 -24.5t-24.5 -59.5zM800 900h100v-400h100 v400h100v100h-300v-100zM1200 500h100v200h100v-200h100v500h-100v-200h-100v200h-100v-500zM1600 500h100v300h100v-300h100v500h-100v-100h-100v100h-100v-500zM1600 1950v450l500 -500h-450q-21 0 -35.5 14.5t-14.5 35.5z" />
<glyph unicode="&#xe059;" d="M200 50v2300q0 21 14.5 35.5t35.5 14.5h1250v-550q0 -21 14.5 -35.5t35.5 -14.5h550v-700h-1400q-41 0 -70.5 -29.5t-29.5 -70.5v-500q0 -41 29.5 -70.5t70.5 -29.5h1400v-350q0 -21 -14.5 -35.5t-35.5 -14.5h-1800q-21 0 -35.5 14.5t-14.5 35.5zM500 1544q0 -18 13 -31 t31 -13h612q18 0 31 13t13 31v512q0 18 -13 31t-31 13h-612q-18 0 -31 -13t-13 -31v-512zM600 1640v360h500v-360l-142 228l-100 -165zM665 1849q0 -35 24.5 -59.5t59.5 -24.5t59.5 24.5t24.5 59.5t-24.5 59.5t-59.5 24.5t-59.5 -24.5t-24.5 -59.5zM800 800v200h100v-200 h100v200h100v-200l-100 -100v-200h-100v200zM1200 600v400h100v-400h100v400h100v-400l-100 -100h-100zM1600 500v500h100v-400h100v-100h-200zM1600 1950v450l500 -500h-450q-21 0 -35.5 14.5t-14.5 35.5zM1800 600v400h100v-400h-100z" />
<glyph unicode="&#xe060;" d="M200 50v2300q0 21 14.5 35.5t35.5 14.5h1250v-550q0 -21 14.5 -35.5t35.5 -14.5h550v-700h-1400q-41 0 -70.5 -29.5t-29.5 -70.5v-500q0 -41 29.5 -70.5t70.5 -29.5h1400v-350q0 -21 -14.5 -35.5t-35.5 -14.5h-1800q-21 0 -35.5 14.5t-14.5 35.5zM500 1544q0 -18 13 -31 t31 -13h612q18 0 31 13t13 31v512q0 18 -13 31t-31 13h-612q-18 0 -31 -13t-13 -31v-512zM600 1640v360h500v-360l-142 228l-100 -165zM665 1849q0 -35 24.5 -59.5t59.5 -24.5t59.5 24.5t24.5 59.5t-24.5 59.5t-59.5 24.5t-59.5 -24.5t-24.5 -59.5zM800 500v500h200 l100 -100v-300l-100 -100h-200zM900 600h100v300h-100v-300zM1200 500v500h200l100 -100v-300l-100 -100h-200zM1300 600h100v300h-100v-300zM1600 500v100h200v100h100v-100l-100 -100h-200zM1600 800v100l100 100h200v-100h-200v-100h-100zM1600 1950v450l500 -500h-450 q-21 0 -35.5 14.5t-14.5 35.5zM1700 700v100h100v-100h-100z" />
<glyph unicode="&#xe061;" d="M200 50v2300q0 21 14.5 35.5t35.5 14.5h1250v-550q0 -21 14.5 -35.5t35.5 -14.5h550v-700h-1400q-41 0 -70.5 -29.5t-29.5 -70.5v-500q0 -41 29.5 -70.5t70.5 -29.5h1400v-350q0 -21 -14.5 -35.5t-35.5 -14.5h-1800q-21 0 -35.5 14.5t-14.5 35.5zM500 1400h300v200 l200 200h200v300h-300v-200l-200 -200h-200v-300zM600 1500v100h100v-100h-100zM800 500v400l100 100h100l100 -100v-400h-100v100h-100v-100h-100zM900 700h100v200h-100v-200zM1000 1900v100h100v-100h-100zM1200 500h100v500h-100v-500zM1600 1950v450l500 -500h-450 q-21 0 -35.5 14.5t-14.5 35.5z" />
<glyph unicode="&#xe062;" d="M200 50v2300q0 21 14.5 35.5t35.5 14.5h1250v-550q0 -21 14.5 -35.5t35.5 -14.5h550v-700h-1400q-41 0 -70.5 -29.5t-29.5 -70.5v-500q0 -41 29.5 -70.5t70.5 -29.5h1400v-350q0 -21 -14.5 -35.5t-35.5 -14.5h-1800q-21 0 -35.5 14.5t-14.5 35.5zM500 1400h300v200 l200 200h200v300h-300v-200l-200 -200h-200v-300zM600 1500v100h100v-100h-100zM800 600v300l100 100h200v-100h-200v-100h200v-100h-200v-100h200v-100h-200zM1000 1900v100h100v-100h-100zM1200 500v500h200l100 -100v-200l-100 -100h-100v-100h-100zM1300 700h100v200 h-100v-200zM1600 500v100h200v100h100v-100l-100 -100h-200zM1600 800v100l100 100h200v-100h-200v-100h-100zM1600 1950v450l500 -500h-450q-21 0 -35.5 14.5t-14.5 35.5zM1700 700v100h100v-100h-100z" />
<glyph unicode="&#xe063;" d="M200 50v2300q0 21 14.5 35.5t35.5 14.5h1250v-550q0 -21 14.5 -35.5t35.5 -14.5h550v-700h-1400q-41 0 -70.5 -29.5t-29.5 -70.5v-500q0 -41 29.5 -70.5t70.5 -29.5h1400v-350q0 -21 -14.5 -35.5t-35.5 -14.5h-1800q-21 0 -35.5 14.5t-14.5 35.5zM500 1400h300v200 l200 200h200v300h-300v-200l-200 -200h-200v-300zM600 1500v100h100v-100h-100zM800 500v500h200l100 -100v-200l-100 -100h-100v-100h-100zM900 700h100v200h-100v-200zM1000 1900v100h100v-100h-100zM1200 500v100h200v100h100v-100l-100 -100h-200zM1200 800v100l100 100 h200v-100h-200v-100h-100zM1300 700v100h100v-100h-100zM1600 1950v450l500 -500h-450q-21 0 -35.5 14.5t-14.5 35.5z" />
<glyph unicode="&#xe064;" d="M200 50v2300q0 21 14.5 35.5t35.5 14.5h1250v-550q0 -21 14.5 -35.5t35.5 -14.5h550v-700h-1400q-41 0 -70.5 -29.5t-29.5 -70.5v-500q0 -41 29.5 -70.5t70.5 -29.5h1400v-350q0 -21 -14.5 -35.5t-35.5 -14.5h-1800q-21 0 -35.5 14.5t-14.5 35.5zM500 1400h300v200 l200 200h200v300h-300v-200l-200 -200h-200v-300zM600 1500v100h100v-100h-100zM800 500v100h200v100h100v-100l-100 -100h-200zM800 800v100l100 100h200v-100h-200v-100h-100zM900 700v100h100v-100h-100zM1000 1900v100h100v-100h-100zM1200 500v500h100v-400h100v-100 h-200zM1400 600v400h100v-400h-100zM1600 500v500h300v-100h-200v-300h100v200h100v-300h-300zM1600 1950v450l500 -500h-450q-21 0 -35.5 14.5t-14.5 35.5z" />
<glyph unicode="&#xe065;" d="M200 50v2300q0 21 14.5 35.5t35.5 14.5h1250v-550q0 -21 14.5 -35.5t35.5 -14.5h550v-700h-1400q-41 0 -70.5 -29.5t-29.5 -70.5v-500q0 -41 29.5 -70.5t70.5 -29.5h1400v-350q0 -21 -14.5 -35.5t-35.5 -14.5h-1800q-21 0 -35.5 14.5t-14.5 35.5zM500 1400h500v200h200 v500h-500v-200h-200v-500zM600 1500v300h100v-200h200v-100h-300zM800 500v500h200l100 -100v-200l-100 -100h-100v-100h-100zM800 1700v300h300v-300h-300zM900 700h100v200h-100v-200zM1200 500v500h200l100 -100v-300l-100 -100h-200zM1300 600h100v300h-100v-300z M1600 500h100v200h200v100h-200v100h200v100h-300v-500zM1600 1950v450l500 -500h-450q-21 0 -35.5 14.5t-14.5 35.5z" />
<glyph unicode="&#xe066;" d="M200 50v2300q0 21 14.5 35.5t35.5 14.5h1250v-550q0 -21 14.5 -35.5t35.5 -14.5h550v-700h-1400q-41 0 -70.5 -29.5t-29.5 -70.5v-500q0 -41 29.5 -70.5t70.5 -29.5h1400v-350q0 -21 -14.5 -35.5t-35.5 -14.5h-1800q-21 0 -35.5 14.5t-14.5 35.5zM500 1400h500v200h200 v500h-500v-200h-200v-500zM600 1500v300h100v-200h200v-100h-300zM800 500v500h200l100 -100v-200l-100 -100h-100v-100h-100zM800 1700v300h300v-300h-300zM900 700h100v200h-100v-200zM1200 600v300l100 100h200v-100h-200v-300h200v-100h-200zM1600 900h100v-400h100v400 h100v100h-300v-100zM1600 1950v450l500 -500h-450q-21 0 -35.5 14.5t-14.5 35.5z" />
<glyph unicode="&#xe067;" d="M200 50v2300q0 21 14.5 35.5t35.5 14.5h1250v-550q0 -21 14.5 -35.5t35.5 -14.5h550v-700h-1400q-41 0 -70.5 -29.5t-29.5 -70.5v-500q0 -41 29.5 -70.5t70.5 -29.5h1400v-350q0 -21 -14.5 -35.5t-35.5 -14.5h-1800q-21 0 -35.5 14.5t-14.5 35.5zM500 1400h500v200h200 v500h-500v-200h-200v-500zM600 1500v300h100v-200h200v-100h-300zM800 500h100v500h-100v-500zM800 1700v300h300v-300h-300zM1000 500h100v400h100v100h-200v-500zM1200 500h100v400h-100v-400zM1400 500v500h200l100 -100v-300l-100 -100h-200zM1500 600h100v300h-100 v-300zM1600 1950v450l500 -500h-450q-21 0 -35.5 14.5t-14.5 35.5zM1800 500v500h200l100 -100v-300l-100 -100h-200zM1900 600h100v300h-100v-300z" />
<glyph unicode="&#xe068;" d="M200 50v2300q0 21 14.5 35.5t35.5 14.5h1250v-550q0 -21 14.5 -35.5t35.5 -14.5h550v-700h-1400q-41 0 -70.5 -29.5t-29.5 -70.5v-500q0 -41 29.5 -70.5t70.5 -29.5h1400v-350q0 -21 -14.5 -35.5t-35.5 -14.5h-1800q-21 0 -35.5 14.5t-14.5 35.5zM500 1400h300v300h-300 v-300zM500 1800h300v300h-300v-300zM600 1500v100h100v-100h-100zM600 1900v100h100v-100h-100zM800 500h100v200h-100v-200zM800 800h100v200h-100v-200zM900 700h100v100h-100v-100zM900 1400h300v300h-300v-300zM900 1800h300v300h-300v-300zM1000 500h100v200h-100v-200 zM1000 800h100v200h-100v-200zM1000 1500v100h100v-100h-100zM1000 1900v100h100v-100h-100zM1200 600v400h100v-400h200v-100h-200zM1600 500v500h200l100 -100v-200h-100v200h-100v-200l100 -100h-100v-100h-100zM1600 1950v450l500 -500h-450q-21 0 -35.5 14.5 t-14.5 35.5zM1800 500v100h100v-100h-100z" />
<glyph unicode="&#xe069;" d="M200 50v2300q0 21 14.5 35.5t35.5 14.5h1250v-550q0 -21 14.5 -35.5t35.5 -14.5h550v-700h-1400q-41 0 -70.5 -29.5t-29.5 -70.5v-500q0 -41 29.5 -70.5t70.5 -29.5h1400v-350q0 -21 -14.5 -35.5t-35.5 -14.5h-1800q-21 0 -35.5 14.5t-14.5 35.5zM500 1400h300v300h-300 v-300zM500 1800h300v300h-300v-300zM600 1500v100h100v-100h-100zM600 1900v100h100v-100h-100zM800 500h100v200h-100v-200zM800 800h100v200h-100v-200zM900 700h100v100h-100v-100zM900 1400h300v300h-300v-300zM900 1800h300v300h-300v-300zM1000 500h100v200h-100v-200 zM1000 800h100v200h-100v-200zM1000 1500v100h100v-100h-100zM1000 1900v100h100v-100h-100zM1200 600v400h100v-400h200v-100h-200zM1600 500v100h200v100h100v-100l-100 -100h-200zM1600 800v100l100 100h200v-100h-200v-100h-100zM1600 1950v450l500 -500h-450 q-21 0 -35.5 14.5t-14.5 35.5zM1700 700v100h100v-100h-100z" />
<glyph unicode="&#xe070;" d="M200 50v2300q0 21 14.5 35.5t35.5 14.5h1250v-550q0 -21 14.5 -35.5t35.5 -14.5h550v-700h-1400q-41 0 -70.5 -29.5t-29.5 -70.5v-500q0 -41 29.5 -70.5t70.5 -29.5h1400v-350q0 -21 -14.5 -35.5t-35.5 -14.5h-1800q-21 0 -35.5 14.5t-14.5 35.5zM500 1400h300v300h-300 v-300zM500 1800h300v300h-300v-300zM600 1500v100h100v-100h-100zM600 1900v100h100v-100h-100zM800 500h100v200h-100v-200zM800 800h100v200h-100v-200zM900 700h100v100h-100v-100zM900 1400h300v300h-300v-300zM900 1800h300v300h-300v-300zM1000 500h100v200h-100v-200 zM1000 800h100v200h-100v-200zM1000 1500v100h100v-100h-100zM1000 1900v100h100v-100h-100zM1200 600v400h100v-400h200v-100h-200zM1600 500v100h200v100h100v-100l-100 -100h-200zM1600 800v100l100 100h200v-100h-200v-100h-100zM1600 1950v450l500 -500h-450 q-21 0 -35.5 14.5t-14.5 35.5zM1700 700v100h100v-100h-100zM2000 500h100v200h-100v-200zM2000 800h100v200h-100v-200zM2100 700h100v100h-100v-100zM2200 500h100v200h-100v-200zM2200 800h100v200h-100v-200z" />
<glyph unicode="&#xe071;" d="M200 50v2300q0 21 14.5 35.5t35.5 14.5h1250v-550q0 -21 14.5 -35.5t35.5 -14.5h550v-700h-1400q-41 0 -70.5 -29.5t-29.5 -70.5v-500q0 -41 29.5 -70.5t70.5 -29.5h1400v-350q0 -21 -14.5 -35.5t-35.5 -14.5h-1800q-21 0 -35.5 14.5t-14.5 35.5zM500 1500q0 -36 7 -57.5 t23.5 -30t29.5 -10.5t40 -2h400q27 0 40 2t29.5 10.5t23.5 30t7 57.5h-600zM500 1600h600v100h-600v-100zM500 1800h600v100h-600v-100zM500 2000h600q0 36 -7 57.5t-23.5 30t-29.5 10.5t-40 2h-400q-27 0 -40 -2t-29.5 -10.5t-23.5 -30t-7 -57.5zM800 500v500h200l100 -100 v-300l-100 -100h-200zM900 600h100v300h-100v-300zM1200 500v500h200l100 -100v-100l-50 -50l50 -50v-100l-100 -100h-200zM1300 600h100v100h-100v-100zM1300 800h100v100h-100v-100zM1600 1950v450l500 -500h-450q-21 0 -35.5 14.5t-14.5 35.5z" />
<glyph unicode="&#xe072;" d="M200 50v2300q0 21 14.5 35.5t35.5 14.5h1250v-550q0 -21 14.5 -35.5t35.5 -14.5h550v-700h-1400q-41 0 -70.5 -29.5t-29.5 -70.5v-500q0 -41 29.5 -70.5t70.5 -29.5h1400v-350q0 -21 -14.5 -35.5t-35.5 -14.5h-1800q-21 0 -35.5 14.5t-14.5 35.5zM500 1500q0 -36 7 -57.5 t23.5 -30t29.5 -10.5t40 -2h400q27 0 40 2t29.5 10.5t23.5 30t7 57.5h-600zM500 1600h600v100h-600v-100zM500 1800h600v100h-600v-100zM500 2000h600q0 36 -7 57.5t-23.5 30t-29.5 10.5t-40 2h-400q-27 0 -40 -2t-29.5 -10.5t-23.5 -30t-7 -57.5zM800 500v500h200l100 -100 v-300l-100 -100h-200zM900 600h100v300h-100v-300zM1200 500v500h200l100 -100v-100l-50 -50l50 -50v-100l-100 -100h-200zM1300 600h100v100h-100v-100zM1300 800h100v100h-100v-100zM1600 500h100v200h200v100h-200v100h200v100h-300v-500zM1600 1950v450l500 -500h-450 q-21 0 -35.5 14.5t-14.5 35.5z" />
<glyph unicode="&#xe073;" d="M200 50v2300q0 21 14.5 35.5t35.5 14.5h1250v-550q0 -21 14.5 -35.5t35.5 -14.5h550v-700h-1400q-41 0 -70.5 -29.5t-29.5 -70.5v-500q0 -41 29.5 -70.5t70.5 -29.5h1400v-350q0 -21 -14.5 -35.5t-35.5 -14.5h-1800q-21 0 -35.5 14.5t-14.5 35.5zM500 1500q0 -36 7 -57.5 t23.5 -30t29.5 -10.5t40 -2h400q27 0 40 2t29.5 10.5t23.5 30t7 57.5h-600zM500 1600h600v100h-600v-100zM500 1800h600v100h-600v-100zM500 2000h600q0 36 -7 57.5t-23.5 30t-29.5 10.5t-40 2h-400q-27 0 -40 -2t-29.5 -10.5t-23.5 -30t-7 -57.5zM800 500h100v300h100v-300 h100v500h-100v-100h-100v100h-100v-500zM1200 500v500h200l100 -100v-300l-100 -100h-200zM1300 600h100v300h-100v-300zM1600 500v500h200l100 -100v-100l-50 -50l50 -50v-100l-100 -100h-200zM1600 1950v450l500 -500h-450q-21 0 -35.5 14.5t-14.5 35.5zM1700 600h100v100 h-100v-100zM1700 800h100v100h-100v-100z" />
<glyph unicode="&#xe074;" d="M200 50v2300q0 21 14.5 35.5t35.5 14.5h1250v-550q0 -21 14.5 -35.5t35.5 -14.5h550v-700h-1400q-41 0 -70.5 -29.5t-29.5 -70.5v-500q0 -41 29.5 -70.5t70.5 -29.5h1400v-350q0 -21 -14.5 -35.5t-35.5 -14.5h-1800q-21 0 -35.5 14.5t-14.5 35.5zM500 1500q0 -36 7 -57.5 t23.5 -30t29.5 -10.5t40 -2h400q27 0 40 2t29.5 10.5t23.5 30t7 57.5h-600zM500 1600h600v100h-600v-100zM500 1800h600v100h-600v-100zM500 2000h600q0 36 -7 57.5t-23.5 30t-29.5 10.5t-40 2h-400q-27 0 -40 -2t-29.5 -10.5t-23.5 -30t-7 -57.5zM800 500v500h200l100 -100 v-200l-100 -100h-100v-100h-100zM900 700h100v200h-100v-200zM1200 500v500h200l100 -100v-300l-100 -100h-200zM1300 600h100v300h-100v-300zM1600 500v500h200l100 -100v-100l-50 -50l50 -50v-100l-100 -100h-200zM1600 1950v450l500 -500h-450q-21 0 -35.5 14.5 t-14.5 35.5zM1700 600h100v100h-100v-100zM1700 800h100v100h-100v-100z" />
<glyph unicode="&#xe075;" d="M200 50v2300q0 21 14.5 35.5t35.5 14.5h1250v-550q0 -21 14.5 -35.5t35.5 -14.5h550v-700h-1400q-41 0 -70.5 -29.5t-29.5 -70.5v-500q0 -41 29.5 -70.5t70.5 -29.5h600v200h100v-200h700v-350q0 -21 -14.5 -35.5t-35.5 -14.5h-1800q-21 0 -35.5 14.5t-14.5 35.5z M500 1500q0 -36 7 -57.5t23.5 -30t29.5 -10.5t40 -2h400q27 0 40 2t29.5 10.5t23.5 30t7 57.5h-600zM500 1600h600v100h-600v-100zM500 1800h600v100h-600v-100zM500 2000h600q0 36 -7 57.5t-23.5 30t-29.5 10.5t-40 2h-400q-27 0 -40 -2t-29.5 -10.5t-23.5 -30t-7 -57.5z M800 500v100h200v100h100v-100l-100 -100h-200zM800 800v100l100 100h200v-100h-200v-100h-100zM900 700v100h100v-100h-100zM1200 600v300l100 100h100l100 -100v-300h-100v300h-100v-300h-100zM1600 600v400h100v-400h200v-100h-200zM1600 1950v450l500 -500h-450 q-21 0 -35.5 14.5t-14.5 35.5z" />
<glyph unicode="&#xe076;" d="M200 50v2300q0 21 14.5 35.5t35.5 14.5h1250v-550q0 -21 14.5 -35.5t35.5 -14.5h550v-700h-1400q-41 0 -70.5 -29.5t-29.5 -70.5v-500q0 -41 29.5 -70.5t70.5 -29.5h1400v-350q0 -21 -14.5 -35.5t-35.5 -14.5h-1800q-21 0 -35.5 14.5t-14.5 35.5zM500 1500q0 -36 7 -57.5 t23.5 -30t29.5 -10.5t40 -2h400q27 0 40 2t29.5 10.5t23.5 30t7 57.5h-600zM500 1600h600v100h-600v-100zM500 1800h600v100h-600v-100zM500 2000h600q0 36 -7 57.5t-23.5 30t-29.5 10.5t-40 2h-400q-27 0 -40 -2t-29.5 -10.5t-23.5 -30t-7 -57.5zM800 500v400l100 100h100 l100 -100v-400h-100v100h-100v-100h-100zM900 700h100v200h-100v-200zM1200 500v400l100 100h100l100 -100v-400h-100v100h-100v-100h-100zM1300 700h100v200h-100v-200zM1600 600v300l100 100h200v-100h-200v-300h200v-100h-200zM1600 1950v450l500 -500h-450 q-21 0 -35.5 14.5t-14.5 35.5zM2000 500v500h200l100 -100v-300l-100 -100h-200zM2100 600h100v300h-100v-300z" />
<glyph unicode="&#xe077;" d="M200 50v2300q0 21 14.5 35.5t35.5 14.5h1250v-550q0 -21 14.5 -35.5t35.5 -14.5h550v-700h-1400q-41 0 -70.5 -29.5t-29.5 -70.5v-500q0 -41 29.5 -70.5t70.5 -29.5h1400v-350q0 -21 -14.5 -35.5t-35.5 -14.5h-1800q-21 0 -35.5 14.5t-14.5 35.5zM481 1751q0 -21 3 -48 l98 -25l1 -3q9 -33 25 -60l1 -3l-51 -86q30 -39 67 -68l86 52l3 -2q26 -15 61 -25l3 -1l25 -97q30 -4 47 -4q24 0 48 4l24 97l4 1q27 8 60 25l3 2l86 -52q37 29 67 68l-51 86l2 3q17 33 25 60l1 3l97 25q3 23 3 48q0 20 -3 47l-97 24l-1 4q-8 27 -25 60l-2 3l51 86 q-23 32 -67 68l-86 -52l-3 2q-25 15 -60 25l-4 1l-24 97q-21 4 -48 4q-23 0 -47 -4l-25 -97l-3 -1q-33 -9 -60 -25l-4 -2l-86 52q-37 -29 -67 -68l52 -86l-2 -3q-16 -27 -25 -60l-1 -4l-98 -24q-3 -22 -3 -47zM701 1751q0 61 43.5 104.5t105.5 43.5t105.5 -43.5t43.5 -104.5 q0 -62 -43.5 -105.5t-105.5 -43.5t-105.5 43.5t-43.5 105.5zM800 500v400l100 100h100l100 -100v-400h-100v100h-100v-100h-100zM900 700h100v200h-100v-200zM1200 500v500h200l100 -100v-200l-100 -100h-100v-100h-100zM1300 700h100v200h-100v-200zM1600 500v500h200 l100 -100v-200l-100 -100h-100v-100h-100zM1600 1950v450l500 -500h-450q-21 0 -35.5 14.5t-14.5 35.5zM1700 700h100v200h-100v-200z" />
<glyph unicode="&#xe078;" d="M200 50v2300q0 21 14.5 35.5t35.5 14.5h1250v-550q0 -21 14.5 -35.5t35.5 -14.5h550v-700h-1400q-41 0 -70.5 -29.5t-29.5 -70.5v-500q0 -41 29.5 -70.5t70.5 -29.5h1400v-350q0 -21 -14.5 -35.5t-35.5 -14.5h-1800q-21 0 -35.5 14.5t-14.5 35.5zM481 1751q0 -21 3 -48 l98 -25l1 -3q9 -33 25 -60l1 -3l-51 -86q30 -39 67 -68l86 52l3 -2q26 -15 61 -25l3 -1l25 -97q30 -4 47 -4q24 0 48 4l24 97l4 1q27 8 60 25l3 2l86 -52q37 29 67 68l-51 86l2 3q17 33 25 60l1 3l97 25q3 23 3 48q0 20 -3 47l-97 24l-1 4q-8 27 -25 60l-2 3l51 86 q-23 32 -67 68l-86 -52l-3 2q-25 15 -60 25l-4 1l-24 97q-21 4 -48 4q-23 0 -47 -4l-25 -97l-3 -1q-32 -9 -61 -25l-3 -2l-86 52q-37 -29 -67 -68l52 -86l-2 -3q-16 -27 -25 -60l-1 -4l-98 -24q-3 -22 -3 -47zM701 1751q0 61 43.5 104.5t105.5 43.5t105.5 -43.5t43.5 -104.5 q0 -62 -43.5 -105.5t-105.5 -43.5t-105.5 43.5t-43.5 105.5zM800 600v300l100 100h200v-100h-200v-100h200v-100h-200v-100h200v-100h-200zM1200 500h100v200h-100v-200zM1200 800h100v200h-100v-200zM1300 700h100v100h-100v-100zM1400 500h100v200h-100v-200zM1400 800 h100v200h-100v-200zM1600 600v300l100 100h200v-100h-200v-100h200v-100h-200v-100h200v-100h-200zM1600 1950v450l500 -500h-450q-21 0 -35.5 14.5t-14.5 35.5z" />
<glyph unicode="&#xe079;" d="M200 50v2300q0 21 14.5 35.5t35.5 14.5h1250v-550q0 -21 14.5 -35.5t35.5 -14.5h550v-700h-1400q-41 0 -70.5 -29.5t-29.5 -70.5v-500q0 -41 29.5 -70.5t70.5 -29.5h1400v-350q0 -21 -14.5 -35.5t-35.5 -14.5h-1800q-21 0 -35.5 14.5t-14.5 35.5zM481 1751q0 -21 3 -48 l98 -25l1 -3q9 -33 25 -60l1 -3l-51 -86q30 -39 67 -68l86 52l3 -2q26 -15 61 -25l3 -1l25 -97q30 -4 47 -4q24 0 48 4l24 97l4 1q27 8 60 25l3 2l86 -52q37 29 67 68l-51 86l2 3q17 33 25 60l1 3l97 25q3 23 3 48q0 20 -3 47l-97 24l-1 4q-8 27 -25 60l-2 3l51 86 q-23 32 -67 68l-86 -52l-3 2q-25 15 -60 25l-4 1l-24 97q-21 4 -48 4q-23 0 -47 -4l-25 -97l-3 -1q-32 -9 -61 -25l-3 -2l-86 52q-37 -29 -67 -68l52 -86l-2 -3q-16 -27 -25 -60l-1 -4l-98 -24q-3 -22 -3 -47zM701 1751q0 61 43.5 104.5t105.5 43.5t105.5 -43.5t43.5 -104.5 q0 -62 -43.5 -105.5t-105.5 -43.5t-105.5 43.5t-43.5 105.5zM800 600v300l100 100h200v-100h-200v-300h200v-100h-200zM1200 600v300l100 100h100l100 -100v-300l-100 -100h-100zM1300 600h100v300h-100v-300zM1600 500h100v300h100v-300h100v500h-100v-100h-100v100h-100 v-500zM1600 1950v450l500 -500h-450q-21 0 -35.5 14.5t-14.5 35.5z" />
<glyph unicode="&#xe080;" d="M200 50v2300q0 21 14.5 35.5t35.5 14.5h1250v-550q0 -21 14.5 -35.5t35.5 -14.5h550v-700h-1400q-41 0 -70.5 -29.5t-29.5 -70.5v-500q0 -41 29.5 -70.5t70.5 -29.5h1400v-350q0 -21 -14.5 -35.5t-35.5 -14.5h-1800q-21 0 -35.5 14.5t-14.5 35.5zM481 1751q0 -21 3 -48 l98 -25l1 -3q9 -33 25 -60l1 -3l-51 -86q30 -39 67 -68l86 52l3 -2q26 -15 61 -25l3 -1l25 -97q30 -4 47 -4q24 0 48 4l24 97l4 1q27 8 60 25l3 2l86 -52q37 29 67 68l-51 86l2 3q17 33 25 60l1 3l97 25q3 23 3 48q0 20 -3 47l-97 24l-1 4q-8 27 -25 60l-2 3l51 86 q-23 32 -67 68l-86 -52l-3 2q-25 15 -60 25l-4 1l-24 97q-21 4 -48 4q-23 0 -47 -4l-25 -97l-3 -1q-32 -9 -61 -25l-3 -2l-86 52q-37 -29 -67 -68l52 -86l-2 -3q-16 -27 -25 -60l-1 -4l-98 -24q-3 -22 -3 -47zM701 1751q0 61 43.5 104.5t105.5 43.5t105.5 -43.5t43.5 -104.5 q0 -62 -43.5 -105.5t-105.5 -43.5t-105.5 43.5t-43.5 105.5zM800 500v500h200l100 -100v-100l-50 -50l50 -50v-100l-100 -100h-200zM900 600h100v100h-100v-100zM900 800h100v100h-100v-100zM1200 500v400l100 100h100l100 -100v-400h-100v100h-100v-100h-100zM1300 700h100 v200h-100v-200zM1600 900h100v-400h100v400h100v100h-300v-100zM1600 1950v450l500 -500h-450q-21 0 -35.5 14.5t-14.5 35.5z" />
<glyph unicode="&#xe081;" d="M200 50v2300q0 21 14.5 35.5t35.5 14.5h1250v-550q0 -21 14.5 -35.5t35.5 -14.5h550v-700h-1400q-41 0 -70.5 -29.5t-29.5 -70.5v-500q0 -41 29.5 -70.5t70.5 -29.5h1400v-350q0 -21 -14.5 -35.5t-35.5 -14.5h-1800q-21 0 -35.5 14.5t-14.5 35.5zM481 1751q0 -21 3 -48 l98 -25l1 -3q9 -33 25 -60l1 -3l-51 -86q30 -39 67 -68l86 52l3 -2q26 -15 61 -25l3 -1l25 -97q30 -4 47 -4q24 0 48 4l24 97l4 1q27 8 60 25l3 2l86 -52q37 29 67 68l-51 86l2 3q17 33 25 60l1 3l97 25q3 23 3 48q0 20 -3 47l-97 24l-1 4q-8 27 -25 60l-2 3l51 86 q-23 32 -67 68l-86 -52l-3 2q-25 15 -60 25l-4 1l-24 97q-21 4 -48 4q-23 0 -47 -4l-25 -97l-3 -1q-33 -9 -60 -25l-4 -2l-86 52q-37 -29 -67 -68l52 -86l-2 -3q-16 -27 -25 -60l-1 -4l-98 -24q-3 -22 -3 -47zM701 1751q0 61 43.5 104.5t105.5 43.5t105.5 -43.5t43.5 -104.5 q0 -62 -43.5 -105.5t-105.5 -43.5t-105.5 43.5t-43.5 105.5zM800 500v400l100 100h100l100 -100v-400h-100v100h-100v-100h-100zM900 700h100v200h-100v-200zM1200 500v500h200l100 -100v-200l-100 -100h-100v-100h-100zM1300 700h100v200h-100v-200zM1600 500h100v200h100 v100h-100v200h-100v-500zM1600 1950v450l500 -500h-450q-21 0 -35.5 14.5t-14.5 35.5zM1800 500h100v200h-100v-200zM1800 800h100v200h-100v-200z" />
<glyph unicode="&#xe082;" d="M200 50v2300q0 21 14.5 35.5t35.5 14.5h1250v-550q0 -21 14.5 -35.5t35.5 -14.5h550v-700h-1400q-41 0 -70.5 -29.5t-29.5 -70.5v-500q0 -41 29.5 -70.5t70.5 -29.5h1400v-350q0 -21 -14.5 -35.5t-35.5 -14.5h-1800q-21 0 -35.5 14.5t-14.5 35.5zM481 1751q0 -21 3 -48 l98 -25l1 -3q9 -33 25 -60l1 -3l-51 -86q30 -39 67 -68l86 52l3 -2q26 -15 61 -25l3 -1l25 -97q30 -4 47 -4q24 0 48 4l24 97l4 1q27 8 60 25l3 2l86 -52q37 29 67 68l-51 86l2 3q17 33 25 60l1 3l97 25q3 23 3 48q0 20 -3 47l-97 24l-1 4q-8 27 -25 60l-2 3l51 86 q-23 32 -67 68l-86 -52l-3 2q-25 15 -60 25l-4 1l-24 97q-21 4 -48 4q-23 0 -47 -4l-25 -97l-3 -1q-33 -9 -60 -25l-4 -2l-86 52q-37 -29 -67 -68l52 -86l-2 -3q-16 -27 -25 -60l-1 -4l-98 -24q-3 -22 -3 -47zM701 1751q0 61 43.5 104.5t105.5 43.5t105.5 -43.5t43.5 -104.5 q0 -62 -43.5 -105.5t-105.5 -43.5t-105.5 43.5t-43.5 105.5zM800 600v200h100v-200h100v400h100v-400l-100 -100h-100zM1200 500v400l100 100h100l100 -100v-400h-100v100h-100v-100h-100zM1300 700h100v200h-100v-200zM1600 500v500h200l100 -100v-200h-100v200h-100v-200 l100 -100h-100v-100h-100zM1600 1950v450l500 -500h-450q-21 0 -35.5 14.5t-14.5 35.5zM1800 500v100h100v-100h-100z" />
<glyph unicode="&#xe083;" d="M200 50v2300q0 21 14.5 35.5t35.5 14.5h1250v-550q0 -21 14.5 -35.5t35.5 -14.5h550v-700h-1400q-41 0 -70.5 -29.5t-29.5 -70.5v-500q0 -41 29.5 -70.5t70.5 -29.5h1400v-350q0 -21 -14.5 -35.5t-35.5 -14.5h-1800q-21 0 -35.5 14.5t-14.5 35.5zM481 1751q0 -21 3 -48 l98 -25l1 -3q9 -33 25 -60l1 -3l-51 -86q30 -39 67 -68l86 52l3 -2q26 -15 61 -25l3 -1l25 -97q30 -4 47 -4q24 0 48 4l24 97l4 1q27 8 60 25l3 2l86 -52q37 29 67 68l-51 86l2 3q17 33 25 60l1 3l97 25q3 23 3 48q0 20 -3 47l-97 24l-1 4q-8 27 -25 60l-2 3l51 86 q-23 32 -67 68l-86 -52l-3 2q-25 15 -60 25l-4 1l-24 97q-21 4 -48 4q-23 0 -47 -4l-25 -97l-3 -1q-33 -9 -60 -25l-4 -2l-86 52q-37 -29 -67 -68l52 -86l-2 -3q-16 -27 -25 -60l-1 -4l-98 -24q-3 -22 -3 -47zM701 1751q0 61 43.5 104.5t105.5 43.5t105.5 -43.5t43.5 -104.5 q0 -62 -43.5 -105.5t-105.5 -43.5t-105.5 43.5t-43.5 105.5zM800 500v500h100v-300h100v300h100v-500h-100v100h-100v-100h-100zM1200 500v100h200v100h100v-100l-100 -100h-200zM1200 800v100l100 100h200v-100h-200v-100h-100zM1300 700v100h100v-100h-100zM1600 500v400 l100 100h200v-100h-200v-100h200v-100h-200v-200h-100zM1600 1950v450l500 -500h-450q-21 0 -35.5 14.5t-14.5 35.5z" />
<glyph unicode="&#xe084;" d="M200 50v2300q0 21 14.5 35.5t35.5 14.5h1250v-550q0 -21 14.5 -35.5t35.5 -14.5h550v-700h-1400q-41 0 -70.5 -29.5t-29.5 -70.5v-500q0 -41 29.5 -70.5t70.5 -29.5h1400v-350q0 -21 -14.5 -35.5t-35.5 -14.5h-1800q-21 0 -35.5 14.5t-14.5 35.5zM481 1751q0 -21 3 -48 l98 -25l1 -3q9 -33 25 -60l1 -3l-51 -86q30 -39 67 -68l86 52l3 -2q26 -15 61 -25l3 -1l25 -97q30 -4 47 -4q24 0 48 4l24 97l4 1q27 8 60 25l3 2l86 -52q37 29 67 68l-51 86l2 3q17 33 25 60l1 3l97 25q3 23 3 48q0 20 -3 47l-97 24l-1 4q-8 27 -25 60l-2 3l51 86 q-23 32 -67 68l-86 -52l-3 2q-25 15 -60 25l-4 1l-24 97q-21 4 -48 4q-23 0 -47 -4l-25 -97l-3 -1q-33 -9 -60 -25l-4 -2l-86 52q-37 -29 -67 -68l52 -86l-2 -3q-16 -27 -25 -60l-1 -4l-98 -24q-3 -22 -3 -47zM701 1751q0 61 43.5 104.5t105.5 43.5t105.5 -43.5t43.5 -104.5 q0 -62 -43.5 -105.5t-105.5 -43.5t-105.5 43.5t-43.5 105.5zM800 500v500h200l100 -100v-200l-100 -100h-100v-100h-100zM900 700h100v200h-100v-200zM1200 500h100v500h-100v-500zM1400 500v400l100 100h200v-100h-200v-100h200v-100h-200v-200h-100zM1600 1950v450 l500 -500h-450q-21 0 -35.5 14.5t-14.5 35.5z" />
<glyph unicode="&#xe085;" d="M200 50v2300q0 21 14.5 35.5t35.5 14.5h1250v-550q0 -21 14.5 -35.5t35.5 -14.5h550v-700h-1400q-41 0 -70.5 -29.5t-29.5 -70.5v-500q0 -41 29.5 -70.5t70.5 -29.5h1400v-350q0 -21 -14.5 -35.5t-35.5 -14.5h-1800q-21 0 -35.5 14.5t-14.5 35.5zM481 1751q0 -21 3 -48 l98 -25l1 -3q9 -33 25 -60l1 -3l-51 -86q30 -39 67 -68l86 52l3 -2q26 -15 61 -25l3 -1l25 -97q30 -4 47 -4q24 0 48 4l24 97l4 1q27 8 60 25l3 2l86 -52q37 29 67 68l-51 86l2 3q17 33 25 60l1 3l97 25q3 23 3 48q0 20 -3 47l-97 24l-1 4q-8 27 -25 60l-2 3l51 86 q-23 32 -67 68l-86 -52l-3 2q-25 15 -60 25l-4 1l-24 97q-21 4 -48 4q-23 0 -47 -4l-25 -97l-3 -1q-33 -9 -60 -25l-4 -2l-86 52q-37 -29 -67 -68l52 -86l-2 -3q-16 -27 -25 -60l-1 -4l-98 -24q-3 -22 -3 -47zM701 1751q0 61 43.5 104.5t105.5 43.5t105.5 -43.5t43.5 -104.5 q0 -62 -43.5 -105.5t-105.5 -43.5t-105.5 43.5t-43.5 105.5zM800 500v500h100v-400h100v-100h-200zM1000 600v400h100v-400h-100zM1200 500v500h200l100 -100v-100l-50 -50l50 -50v-100l-100 -100h-200zM1300 600h100v100h-100v-100zM1300 800h100v100h-100v-100zM1600 1950 v450l500 -500h-450q-21 0 -35.5 14.5t-14.5 35.5z" />
<glyph unicode="&#xe086;" d="M200 50v2300q0 21 14.5 35.5t35.5 14.5h1250v-550q0 -21 14.5 -35.5t35.5 -14.5h550v-700h-1400q-41 0 -70.5 -29.5t-29.5 -70.5v-500q0 -41 29.5 -70.5t70.5 -29.5h1400v-350q0 -21 -14.5 -35.5t-35.5 -14.5h-1800q-21 0 -35.5 14.5t-14.5 35.5zM481 1751q0 -21 3 -48 l98 -25l1 -3q9 -33 25 -60l1 -3l-51 -86q30 -39 67 -68l86 52l3 -2q26 -15 61 -25l3 -1l25 -97q30 -4 47 -4q24 0 48 4l24 97l4 1q27 8 60 25l3 2l86 -52q37 29 67 68l-51 86l2 3q17 33 25 60l1 3l97 25q3 23 3 48q0 20 -3 47l-97 24l-1 4q-8 27 -25 60l-2 3l51 86 q-23 32 -67 68l-86 -52l-3 2q-25 15 -60 25l-4 1l-24 97q-21 4 -48 4q-23 0 -47 -4l-25 -97l-3 -1q-33 -9 -60 -25l-4 -2l-86 52q-37 -29 -67 -68l52 -86l-2 -3q-16 -27 -25 -60l-1 -4l-98 -24q-3 -22 -3 -47zM701 1751q0 61 43.5 104.5t105.5 43.5t105.5 -43.5t43.5 -104.5 q0 -62 -43.5 -105.5t-105.5 -43.5t-105.5 43.5t-43.5 105.5zM800 600v300l100 100h200v-100h-200v-300h200v-100h-200zM1200 600v300l100 100h200v-100h-200v-300h100v200h100v-300h-200zM1600 500h100v500h-100v-500zM1600 1950v450l500 -500h-450q-21 0 -35.5 14.5 t-14.5 35.5z" />
<glyph unicode="&#xe087;" d="M200 50v2300q0 21 14.5 35.5t35.5 14.5h1250v-550q0 -21 14.5 -35.5t35.5 -14.5h550v-700h-1400q-41 0 -70.5 -29.5t-29.5 -70.5v-500q0 -41 29.5 -70.5t70.5 -29.5h1400v-350q0 -21 -14.5 -35.5t-35.5 -14.5h-1800q-21 0 -35.5 14.5t-14.5 35.5zM480 1812l340 -205v155 l-151 88l151 84v154l-340 -197v-79zM800 600v300l100 100h200v-100h-200v-300h200v-100h-200zM880 1607l340 205v79l-340 197v-154l151 -84l-151 -88v-155zM1200 500v100h200v100h100v-100l-100 -100h-200zM1200 800v100l100 100h200v-100h-200v-100h-100zM1300 700v100h100 v-100h-100zM1600 500v100h200v100h100v-100l-100 -100h-200zM1600 800v100l100 100h200v-100h-200v-100h-100zM1600 1950v450l500 -500h-450q-21 0 -35.5 14.5t-14.5 35.5zM1700 700v100h100v-100h-100z" />
<glyph unicode="&#xe088;" d="M200 50v2300q0 21 14.5 35.5t35.5 14.5h1250v-550q0 -21 14.5 -35.5t35.5 -14.5h550v-700h-1400q-41 0 -70.5 -29.5t-29.5 -70.5v-500q0 -41 29.5 -70.5t70.5 -29.5h1400v-350q0 -21 -14.5 -35.5t-35.5 -14.5h-1800q-21 0 -35.5 14.5t-14.5 35.5zM480 1812l340 -205v155 l-151 88l151 84v154l-340 -197v-79zM800 600v200h100v-200h100v400h100v-400l-99 -100h-100zM880 1607l340 205v79l-340 197v-154l151 -84l-151 -88v-155zM1200 500v100h200v100h100v-100l-100 -100h-200zM1200 800v100l100 100h200v-100h-200v-100h-100zM1300 700v100h100 v-100h-100zM1600 1950v450l500 -500h-450q-21 0 -35.5 14.5t-14.5 35.5z" />
<glyph unicode="&#xe089;" d="M200 50v2300q0 21 14.5 35.5t35.5 14.5h1250v-550q0 -21 14.5 -35.5t35.5 -14.5h550v-700h-1400q-41 0 -70.5 -29.5t-29.5 -70.5v-500q0 -41 29.5 -70.5t70.5 -29.5h1400v-350q0 -21 -14.5 -35.5t-35.5 -14.5h-1800q-21 0 -35.5 14.5t-14.5 35.5zM480 1812l340 -205v155 l-151 88l151 84v154l-340 -197v-79zM800 500v500h200l100 -100v-200l-100 -100h-100v-100h-100zM880 1607l340 205v79l-340 197v-154l151 -84l-151 -88v-155zM900 700h100v200h-100v-200zM1200 500v500h100v-200h100v200h100v-500h-100v200h-100v-200h-100zM1600 500v500 h200l100 -100v-200l-100 -100h-100v-100h-100zM1600 1950v450l500 -500h-450q-21 0 -35.5 14.5t-14.5 35.5zM1700 700h100v200h-100v-200z" />
<glyph unicode="&#xe090;" d="M200 50v2300q0 21 14.5 35.5t35.5 14.5h1250v-550q0 -21 14.5 -35.5t35.5 -14.5h550v-700h-1400q-41 0 -70.5 -29.5t-29.5 -70.5v-500q0 -41 29.5 -70.5t70.5 -29.5h1400v-350q0 -21 -14.5 -35.5t-35.5 -14.5h-1800q-21 0 -35.5 14.5t-14.5 35.5zM480 1812l340 -205v155 l-151 88l151 84v154l-340 -197v-79zM800 500h100v200h-100v-200zM800 800h100v200h-100v-200zM880 1607l340 205v79l-340 197v-154l151 -84l-151 -88v-155zM900 700h100v100h-100v-100zM1000 500h100v200h-100v-200zM1000 800h100v200h-100v-200zM1200 500h100v200h100v-200 h100v500h-100v-200h-100v200h-100v-500zM1600 900h100v-400h100v400h100v100h-300v-100zM1600 1950v450l500 -500h-450q-21 0 -35.5 14.5t-14.5 35.5zM2000 500h100v300h100v-300h100v500h-100v-100h-100v100h-100v-500z" />
<glyph unicode="&#xe091;" d="M200 50v2300q0 21 14.5 35.5t35.5 14.5h1250v-550q0 -21 14.5 -35.5t35.5 -14.5h550v-700h-1400q-41 0 -70.5 -29.5t-29.5 -70.5v-500q0 -41 29.5 -70.5t70.5 -29.5h1400v-350q0 -21 -14.5 -35.5t-35.5 -14.5h-1800q-21 0 -35.5 14.5t-14.5 35.5zM480 1812l340 -205v155 l-151 88l151 84v154l-340 -197v-79zM800 500h100v200h100v-200h100v500h-100v-200h-100v200h-100v-500zM880 1607l340 205v79l-340 197v-154l151 -84l-151 -88v-155zM1200 900h100v-400h100v400h100v100h-300v-100zM1600 500h100v300h100v-300h100v500h-100v-100h-100v100 h-100v-500zM1600 1950v450l500 -500h-450q-21 0 -35.5 14.5t-14.5 35.5z" />
<glyph unicode="&#xe092;" d="M200 50v2300q0 21 14.5 35.5t35.5 14.5h1250v-550q0 -21 14.5 -35.5t35.5 -14.5h550v-700h-1400q-41 0 -70.5 -29.5t-29.5 -70.5v-500q0 -41 29.5 -70.5t70.5 -29.5h1400v-350q0 -21 -14.5 -35.5t-35.5 -14.5h-1800q-21 0 -35.5 14.5t-14.5 35.5zM480 1812l340 -205v155 l-151 88l151 84v154l-340 -197v-79zM800 500h100v200h100v-200h100v500h-100v-200h-100v200h-100v-500zM880 1607l340 205v79l-340 197v-154l151 -84l-151 -88v-155zM1200 900h100v-400h100v400h100v100h-300v-100zM1600 500h100v300h100v-300h100v500h-100v-100h-100v100 h-100v-500zM1600 1950v450l500 -500h-450q-21 0 -35.5 14.5t-14.5 35.5zM2000 600v400h100v-400h200v-100h-200z" />
<glyph unicode="&#xe093;" d="M200 50v2300q0 21 14.5 35.5t35.5 14.5h1250v-550q0 -21 14.5 -35.5t35.5 -14.5h550v-700h-1400q-41 0 -70.5 -29.5t-29.5 -70.5v-500q0 -41 29.5 -70.5t70.5 -29.5h1400v-350q0 -21 -14.5 -35.5t-35.5 -14.5h-1800q-21 0 -35.5 14.5t-14.5 35.5zM480 1812l340 -205v155 l-151 88l151 84v154l-340 -197v-79zM800 500v400l100 100h100l100 -100v-400h-100v100h-100v-100h-100zM880 1607l340 205v79l-340 197v-154l151 -84l-151 -88v-155zM900 700h100v200h-100v-200zM1200 500v100h200v100h100v-100l-100 -100h-200zM1200 800v100l100 100h200 v-100h-200v-100h-100zM1300 700v100h100v-100h-100zM1600 500v500h200l100 -100v-200l-100 -100h-100v-100h-100zM1600 1950v450l500 -500h-450q-21 0 -35.5 14.5t-14.5 35.5zM1700 700h100v200h-100v-200z" />
<glyph unicode="&#xe094;" d="M200 50v2300q0 21 14.5 35.5t35.5 14.5h1250v-550q0 -21 14.5 -35.5t35.5 -14.5h550v-700h-1400q-41 0 -70.5 -29.5t-29.5 -70.5v-500q0 -41 29.5 -70.5t70.5 -29.5h1400v-350q0 -21 -14.5 -35.5t-35.5 -14.5h-1800q-21 0 -35.5 14.5t-14.5 35.5zM480 1812l340 -205v155 l-151 88l151 84v154l-340 -197v-79zM800 600v300l100 100h200v-100h-200v-300h200v-100h-200zM880 1607l340 205v79l-340 197v-154l151 -84l-151 -88v-155zM1200 600v300l100 100h200v-100h-200v-100h200v-100h-200v-100h200v-100h-200zM1600 500v500h200l100 -100v-200 h-100v200h-100v-200l100 -100h-100v-100h-100zM1600 1950v450l500 -500h-450q-21 0 -35.5 14.5t-14.5 35.5zM1800 500v100h100v-100h-100z" />
<glyph unicode="&#xe095;" d="M200 50v2300q0 21 14.5 35.5t35.5 14.5h1250v-550q0 -21 14.5 -35.5t35.5 -14.5h550v-700h-1400q-41 0 -70.5 -29.5t-29.5 -70.5v-500q0 -41 29.5 -70.5t70.5 -29.5h1400v-350q0 -21 -14.5 -35.5t-35.5 -14.5h-1800q-21 0 -35.5 14.5t-14.5 35.5zM480 1812l340 -205v155 l-151 88l151 84v154l-340 -197v-79zM800 600v200h100v-200h100v400h100v-400l-100 -100h-100zM880 1607l340 205v79l-340 197v-154l151 -84l-151 -88v-155zM1200 500v100h200v100h100v-100l-100 -100h-200zM1200 800v100l100 100h200v-100h-200v-100h-100zM1300 700v100h100 v-100h-100zM1600 500v500h200l100 -100v-200l-100 -100h-100v-100h-100zM1600 1950v450l500 -500h-450q-21 0 -35.5 14.5t-14.5 35.5zM1700 700h100v200h-100v-200z" />
<glyph unicode="&#xe096;" d="M200 50v2300q0 21 14.5 35.5t35.5 14.5h1250v-550q0 -21 14.5 -35.5t35.5 -14.5h550v-700h-1400q-41 0 -70.5 -29.5t-29.5 -70.5v-500q0 -41 29.5 -70.5t70.5 -29.5h1400v-350q0 -21 -14.5 -35.5t-35.5 -14.5h-1800q-21 0 -35.5 14.5t-14.5 35.5zM480 1812l340 -205v155 l-151 88l151 84v154l-340 -197v-79zM800 600v300l100 100h200v-100h-200v-300h200v-100h-200zM880 1607l340 205v79l-340 197v-154l151 -84l-151 -88v-155zM1200 500v400l101 100h199v-100h-200v-100h200v-100h-200v-200h-100zM1600 500h100v300h100v-300h100v500h-100v-100 h-100v100h-100v-500zM1600 1950v450l500 -500h-450q-21 0 -35.5 14.5t-14.5 35.5z" />
<glyph unicode="&#xe097;" d="M200 50v2300q0 21 14.5 35.5t35.5 14.5h1250v-550q0 -21 14.5 -35.5t35.5 -14.5h550v-700h-1400q-41 0 -70.5 -29.5t-29.5 -70.5v-500q0 -41 29.5 -70.5t70.5 -29.5h1400v-350q0 -21 -14.5 -35.5t-35.5 -14.5h-1800q-21 0 -35.5 14.5t-14.5 35.5zM480 1812l340 -205v155 l-151 88l151 84v154l-340 -197v-79zM800 500v400l100 100h100l100 -100v-400h-100v100h-100v-100h-100zM880 1607l340 205v79l-340 197v-154l151 -84l-151 -88v-155zM900 700h100v200h-100v-200zM1200 500v100h200v100h100v-100l-100 -100h-200zM1200 800v100l100 100h200 v-100h-200v-100h-100zM1300 700v100h100v-100h-100zM1600 500v500h200l100 -100v-200l-100 -100h-100v-100h-100zM1600 1950v450l500 -500h-450q-21 0 -35.5 14.5t-14.5 35.5zM1700 700h100v200h-100v-200zM2000 500h100v200h-100v-200zM2000 800h100v200h-100v-200z M2100 700h100v100h-100v-100zM2200 500h100v200h-100v-200zM2200 800h100v200h-100v-200z" />
<glyph unicode="&#xe098;" d="M200 50v2300q0 21 14.5 35.5t35.5 14.5h1250v-550q0 -21 14.5 -35.5t35.5 -14.5h550v-700h-1400q-41 0 -70.5 -29.5t-29.5 -70.5v-500q0 -41 29.5 -70.5t70.5 -29.5h1400v-350q0 -21 -14.5 -35.5t-35.5 -14.5h-1800q-21 0 -35.5 14.5t-14.5 35.5zM480 1812l340 -205v155 l-151 88l151 84v154l-340 -197v-79zM800 500v500h200l100 -100v-200h-100v200h-100v-200l100 -100h-100v-100h-100zM880 1607l340 205v79l-340 197v-154l151 -84l-151 -88v-155zM1000 500v100h100v-100h-100zM1200 500v100h200v100h100v-100l-100 -100h-200zM1200 800v100 l100 100h200v-100h-200v-100h-100zM1300 700v100h100v-100h-100zM1600 500v100h200v100h100v-100l-100 -100h-200zM1600 800v100l100 100h200v-100h-200v-100h-100zM1600 1950v450l500 -500h-450q-21 0 -35.5 14.5t-14.5 35.5zM1700 700v100h100v-100h-100z" />
<glyph unicode="&#xe099;" d="M200 50v2300q0 21 14.5 35.5t35.5 14.5h1250v-550q0 -21 14.5 -35.5t35.5 -14.5h550v-700h-1400q-41 0 -70.5 -29.5t-29.5 -70.5v-500q0 -41 29.5 -70.5t70.5 -29.5h1400v-350q0 -21 -14.5 -35.5t-35.5 -14.5h-1800q-21 0 -35.5 14.5t-14.5 35.5zM480 1812l340 -205v155 l-151 88l151 84v154l-340 -197v-79zM800 600v300l100 100h200v-100h-200v-300h200v-100h-200zM880 1607l340 205v79l-340 197v-154l151 -84l-151 -88v-155zM1200 500v100h200v100h100v-100l-100 -100h-200zM1200 800v100l100 100h200v-100h-200v-100h-100zM1300 700v100h100 v-100h-100zM1600 500v500h200l100 -100v-200h-100v200h-100v-200l100 -100h-100v-100h-100zM1600 1950v450l500 -500h-450q-21 0 -35.5 14.5t-14.5 35.5zM1800 500v100h100v-100h-100z" />
<glyph unicode="&#xe101;" d="M200 50v2300q0 21 14.5 35.5t35.5 14.5h1250v-550q0 -21 14.5 -35.5t35.5 -14.5h550v-700h-1400q-41 0 -70.5 -29.5t-29.5 -70.5v-500q0 -41 29.5 -70.5t70.5 -29.5h1400v-350q0 -21 -14.5 -35.5t-35.5 -14.5h-1800q-21 0 -35.5 14.5t-14.5 35.5zM500 1950h25 q0 15 4 24.5t9 14.5t17 7.5t20 3t25 0.5h100v-425l-50 -25v-50h200v50l-50 25v425h100q17 0 25 -0.5t20 -3t17 -7.5t9 -14.5t4 -24.5h25v150h-75h-350h-75v-150zM800 600v300l100 100h100l100 -100v-300l-100 -100h-100zM900 600h100v300h-100v-300zM1200 900h100v-400h100 v400h100v100h-300v-100zM1600 500v400l101 100h199v-100h-200v-100h200v-100h-200v-200h-100zM1600 1950v450l500 -500h-450q-21 0 -35.5 14.5t-14.5 35.5z" />
<glyph unicode="&#xe102;" d="M200 50v2300q0 21 14.5 35.5t35.5 14.5h1250v-550q0 -21 14.5 -35.5t35.5 -14.5h550v-700h-1400q-41 0 -70.5 -29.5t-29.5 -70.5v-500q0 -41 29.5 -70.5t70.5 -29.5h1400v-350q0 -21 -14.5 -35.5t-35.5 -14.5h-1800q-21 0 -35.5 14.5t-14.5 35.5zM500 1950h25 q0 15 4 24.5t9 14.5t17 7.5t20 3t25 0.5h100v-425l-50 -25v-50h200v50l-50 25v425h100q17 0 25 -0.5t20 -3t17 -7.5t9 -14.5t4 -24.5h25v150h-75h-350h-75v-150zM800 900h100v-400h100v400h100v100h-300v-100zM1200 900h100v-400h100v400h100v100h-300v-100zM1600 500v400 l101 100h199v-100h-200v-100h200v-100h-200v-200h-100zM1600 1950v450l500 -500h-450q-21 0 -35.5 14.5t-14.5 35.5z" />
<glyph unicode="&#xe103;" d="M200 50v2300q0 21 14.5 35.5t35.5 14.5h1250v-550q0 -21 14.5 -35.5t35.5 -14.5h550v-700h-1400q-41 0 -70.5 -29.5t-29.5 -70.5v-500q0 -41 29.5 -70.5t70.5 -29.5h1400v-350q0 -21 -14.5 -35.5t-35.5 -14.5h-1800q-21 0 -35.5 14.5t-14.5 35.5zM500 1950h25 q0 15 4 24.5t9 14.5t17 7.5t20 3t25 0.5h100v-425l-50 -25v-50h200v50l-50 25v425h100q17 0 25 -0.5t20 -3t17 -7.5t9 -14.5t4 -24.5h25v150h-75h-350h-75v-150zM800 500v400l101 100h199v-100h-200v-100h200v-100h-200v-200h-100zM1200 600v300l100 100h100l100 -100v-300 l-100 -100h-100zM1300 600h100v300h-100v-300zM1600 500h100v400h100v100h-200v-500zM1600 1950v450l500 -500h-450q-21 0 -35.5 14.5t-14.5 35.5zM1800 500h100v400h-100v-400z" />
<glyph unicode="&#xe104;" d="M200 50v2300q0 21 14.5 35.5t35.5 14.5h1250v-550q0 -21 14.5 -35.5t35.5 -14.5h550v-700h-1400q-41 0 -70.5 -29.5t-29.5 -70.5v-500q0 -41 29.5 -70.5t70.5 -29.5h1400v-350q0 -21 -14.5 -35.5t-35.5 -14.5h-1800q-21 0 -35.5 14.5t-14.5 35.5zM500 1950h25 q0 15 4 24.5t9 14.5t17 7.5t20 3t25 0.5h100v-425l-50 -25v-50h200v50l-50 25v425h100q17 0 25 -0.5t20 -3t17 -7.5t9 -14.5t4 -24.5h25v150h-75h-350h-75v-150zM800 500v400l101 100h199v-100h-200v-100h200v-100h-200v-200h-100zM1200 500h100v400h100v100h-200v-500z M1400 500h100v400h-100v-400zM1600 900h100v-400h100v400h100v100h-300v-100zM1600 1950v450l500 -500h-450q-21 0 -35.5 14.5t-14.5 35.5z" />
<glyph unicode="&#xe105;" d="M200 50v2300q0 21 14.5 35.5t35.5 14.5h1250v-550q0 -21 14.5 -35.5t35.5 -14.5h550v-700h-1400q-41 0 -70.5 -29.5t-29.5 -70.5v-500q0 -41 29.5 -70.5t70.5 -29.5h1400v-350q0 -21 -14.5 -35.5t-35.5 -14.5h-1800q-21 0 -35.5 14.5t-14.5 35.5zM500 1950h25 q0 15 4 24.5t9 14.5t17 7.5t20 3t25 0.5h100v-425l-50 -25v-50h200v50l-50 25v425h100q17 0 25 -0.5t20 -3t17 -7.5t9 -14.5t4 -24.5h25v150h-75h-350h-75v-150zM800 600v300l100 100h200v-100h-200v-100h200v-100h-200v-100h200v-100h-200zM1200 600v300l100 100h100 l100 -100v-300l-100 -100h-100zM1300 600h100v300h-100v-300zM1600 900h100v-400h100v400h100v100h-300v-100zM1600 1950v450l500 -500h-450q-21 0 -35.5 14.5t-14.5 35.5z" />
<glyph unicode="&#xe106;" d="M200 50v2300q0 21 14.5 35.5t35.5 14.5h1250v-550q0 -21 14.5 -35.5t35.5 -14.5h550v-700h-1400q-41 0 -70.5 -29.5t-29.5 -70.5v-500q0 -41 29.5 -70.5t70.5 -29.5h1400v-350q0 -21 -14.5 -35.5t-35.5 -14.5h-1800q-21 0 -35.5 14.5t-14.5 35.5zM500 1950h25 q0 15 4 24.5t9 14.5t17 7.5t20 3t25 0.5h100v-425l-50 -25v-50h200v50l-50 25v425h100q17 0 25 -0.5t20 -3t17 -7.5t9 -14.5t4 -24.5h25v150h-75h-350h-75v-150zM800 500h100v100h100v-100h100v500h-100v-300h-100v300h-100v-500zM1200 600v300l100 100h100l100 -100v-300 l-100 -100h-100zM1300 600h100v300h-100v-300zM1600 500v400l101 100h199v-100h-200v-100h200v-100h-200v-200h-100zM1600 1950v450l500 -500h-450q-21 0 -35.5 14.5t-14.5 35.5zM2000 500v400l101 100h199v-100h-200v-100h200v-100h-200v-200h-100z" />
<glyph unicode="&#xe107;" d="M200 50v2300q0 21 14.5 35.5t35.5 14.5h1250v-550q0 -21 14.5 -35.5t35.5 -14.5h550v-700h-1400q-41 0 -70.5 -29.5t-29.5 -70.5v-500q0 -41 29.5 -70.5t70.5 -29.5h1400v-350q0 -21 -14.5 -35.5t-35.5 -14.5h-1800q-21 0 -35.5 14.5t-14.5 35.5zM800 600l100 -100h200 v100h-200v100h-100v-100zM800 900h200v-100h100v100l-100 100h-200v-100zM900 700h100v100h-100v-100zM1000 1200h200v100h150v50h-200v-50h-150v-100zM1000 1400h200v100h150v50h-200v-50h-150v-100zM1000 1600h200v100h150v50h-200v-50h-150v-100zM1000 1800h200v100h150 v50h-200v-50h-150v-100zM1000 2000h200v100h150v50h-200v-50h-150v-100zM1000 2200h200v100h150v50h-200v-50h-150v-100zM1200 500h100v500h-100v-500zM1400 500v500h200l100 -100v-200l-100 -100h-100v-100h-100zM1500 700h100v200h-100v-200zM1600 1950v450l500 -500h-450 q-21 0 -35.5 14.5t-14.5 35.5z" />
<glyph unicode="&#xe108;" d="M200 50v2300q0 21 14.5 35.5t35.5 14.5h1250v-550q0 -21 14.5 -35.5t35.5 -14.5h550v-700h-1400q-41 0 -70.5 -29.5t-29.5 -70.5v-500q0 -41 29.5 -70.5t70.5 -29.5h1400v-350q0 -21 -14.5 -35.5t-35.5 -14.5h-1800q-21 0 -35.5 14.5t-14.5 35.5zM800 600l100 -100h200 v100h-200v100h-100v-100zM800 900h200v-100h100v100l-100 100h-200v-100zM900 700h100v100h-100v-100zM1000 1200h200v100h150v50h-200v-50h-150v-100zM1000 1400h200v100h150v50h-200v-50h-150v-100zM1000 1600h200v100h150v50h-200v-50h-150v-100zM1000 1800h200v100h150 v50h-200v-50h-150v-100zM1000 2000h200v100h150v50h-200v-50h-150v-100zM1000 2200h200v100h150v50h-200v-50h-150v-100zM1200 500h100v500h-100v-500zM1400 500v500h200l100 -100v-200l-100 -100h-100v-100h-100zM1500 700h100v200h-100v-200zM1600 1950v450l500 -500h-450 q-21 0 -35.5 14.5t-14.5 35.5zM1800 500h100v200h-100v-200zM1800 800h100v200h-100v-200zM1900 700h100v100h-100v-100zM2000 500h100v200h-100v-200zM2000 800h100v200h-100v-200z" />
<glyph unicode="&#xe109;" d="M200 50v2300q0 21 14.5 35.5t35.5 14.5h1250v-550q0 -21 14.5 -35.5t35.5 -14.5h550v-700h-1400q-41 0 -70.5 -29.5t-29.5 -70.5v-500q0 -41 29.5 -70.5t70.5 -29.5h1400v-350q0 -21 -14.5 -35.5t-35.5 -14.5h-1800q-21 0 -35.5 14.5t-14.5 35.5zM800 500v500h200 l100 -100v-200h-100v200h-100v-200l100 -100h-100v-100h-100zM1000 500v100h100v-100h-100zM1000 1200h200v100h150v50h-200v-50h-150v-100zM1000 1400h200v100h150v50h-200v-50h-150v-100zM1000 1600h200v100h150v50h-200v-50h-150v-100zM1000 1800h200v100h150v50h-200 v-50h-150v-100zM1000 2000h200v100h150v50h-200v-50h-150v-100zM1000 2200h200v100h150v50h-200v-50h-150v-100zM1200 500v400l100 100h100l100 -100v-400h-100v100h-100v-100h-100zM1300 700h100v200h-100v-200zM1600 500v500h200l100 -100v-200h-100v200h-100v-200 l100 -100h-100v-100h-100zM1600 1950v450l500 -500h-450q-21 0 -35.5 14.5t-14.5 35.5zM1800 500v100h100v-100h-100z" />
<glyph unicode="&#xe110;" d="M200 50v2300q0 21 14.5 35.5t35.5 14.5h1250v-550q0 -21 14.5 -35.5t35.5 -14.5h550v-700h-1400q-41 0 -70.5 -29.5t-29.5 -70.5v-500q0 -41 29.5 -70.5t70.5 -29.5h1400v-350q0 -21 -14.5 -35.5t-35.5 -14.5h-1800q-21 0 -35.5 14.5t-14.5 35.5zM800 900h100v-400h100 v400h100v100h-300v-100zM1000 1200h200v100h150v50h-200v-50h-150v-100zM1000 1400h200v100h150v50h-200v-50h-150v-100zM1000 1600h200v100h150v50h-200v-50h-150v-100zM1000 1800h200v100h150v50h-200v-50h-150v-100zM1000 2000h200v100h150v50h-200v-50h-150v-100z M1000 2200h200v100h150v50h-200v-50h-150v-100zM1200 500v400l100 100h100l100 -100v-400h-100v100h-100v-100h-100zM1300 700h100v200h-100v-200zM1600 500v500h200l100 -100v-200h-100v200h-100v-200l100 -100h-100v-100h-100zM1600 1950v450l500 -500h-450 q-21 0 -35.5 14.5t-14.5 35.5zM1800 500v100h100v-100h-100zM2000 500v500h300v-100h-200v-300h100v200h100v-300h-300z" />
<glyph unicode="&#xe111;" d="M200 50v2300q0 21 14.5 35.5t35.5 14.5h1250v-550q0 -21 14.5 -35.5t35.5 -14.5h550v-700h-1400q-41 0 -70.5 -29.5t-29.5 -70.5v-500q0 -41 29.5 -70.5t70.5 -29.5h1400v-350q0 -21 -14.5 -35.5t-35.5 -14.5h-1800q-21 0 -35.5 14.5t-14.5 35.5zM800 500v100h200v100 h100v-100l-100 -100h-200zM800 800v100l100 100h200v-100h-200v-100h-100zM900 700v100h100v-100h-100zM1000 1200h200v100h150v50h-200v-50h-150v-100zM1000 1400h200v100h150v50h-200v-50h-150v-100zM1000 1600h200v100h150v50h-200v-50h-150v-100zM1000 1800h200v100h150 v50h-200v-50h-150v-100zM1000 2000h200v100h150v50h-200v-50h-150v-100zM1000 2200h200v100h150v50h-200v-50h-150v-100zM1200 500h100v500h-100v-500zM1400 900h100v-400h100v400h100v100h-300v-100zM1600 1950v450l500 -500h-450q-21 0 -35.5 14.5t-14.5 35.5zM1800 500 h100v200h-100v-200zM1800 800h100v200h-100v-200zM1900 700h100v100h-100v-100zM2000 500h100v200h-100v-200zM2000 800h100v200h-100v-200z" />
<glyph unicode="&#xe112;" d="M200 50v2300q0 21 14.5 35.5t35.5 14.5h1250v-550q0 -21 14.5 -35.5t35.5 -14.5h550v-700h-1400q-41 0 -70.5 -29.5t-29.5 -70.5v-500q0 -41 29.5 -70.5t70.5 -29.5h1400v-350q0 -21 -14.5 -35.5t-35.5 -14.5h-1800q-21 0 -35.5 14.5t-14.5 35.5zM800 500v500h200 l100 -100v-300l-100 -100h-200zM900 600h100v300h-100v-300zM1000 1200h200v100h150v50h-200v-50h-150v-100zM1000 1400h200v100h150v50h-200v-50h-150v-100zM1000 1600h200v100h150v50h-200v-50h-150v-100zM1000 1800h200v100h150v50h-200v-50h-150v-100zM1000 2000h200 v100h150v50h-200v-50h-150v-100zM1000 2200h200v100h150v50h-200v-50h-150v-100zM1200 600v300l100 100h200v-100h-200v-100h200v-100h-200v-100h200v-100h-200zM1600 500v500h200l100 -100v-100l-50 -50l50 -50v-100l-100 -100h-200zM1600 1950v450l500 -500h-450 q-21 0 -35.5 14.5t-14.5 35.5zM1700 600h100v100h-100v-100zM1700 800h100v100h-100v-100z" />
<glyph unicode="&#xe113;" d="M200 50v2300q0 21 14.5 35.5t35.5 14.5h1250v-550q0 -21 14.5 -35.5t35.5 -14.5h550v-700h-1400q-41 0 -70.5 -29.5t-29.5 -70.5v-500q0 -41 29.5 -70.5t70.5 -29.5h1400v-350q0 -21 -14.5 -35.5t-35.5 -14.5h-1800q-21 0 -35.5 14.5t-14.5 35.5zM800 900v100h300v-300 h-99v-100h-100v100h99v200h-200zM801 500v100h100v-100h-100zM1000 1200h200v100h150v50h-200v-50h-150v-100zM1000 1400h200v100h150v50h-200v-50h-150v-100zM1000 1600h200v100h150v50h-200v-50h-150v-100zM1000 1800h200v100h150v50h-200v-50h-150v-100zM1000 2000h200 v100h150v50h-200v-50h-150v-100zM1000 2200h200v100h150v50h-200v-50h-150v-100zM1200 600v100h100v-100h200v-100h-200zM1200 900v100h200l100 -100v-100h-100v100h-200zM1300 700v100h100v-100h-100zM1600 1950v450l500 -500h-450q-21 0 -35.5 14.5t-14.5 35.5z" />
<glyph unicode="&#xe114;" d="M200 50v2300q0 21 14.5 35.5t35.5 14.5h1250v-550q0 -21 14.5 -35.5t35.5 -14.5h550v-700h-1400q-41 0 -70.5 -29.5t-29.5 -70.5v-500q0 -41 29.5 -70.5t70.5 -29.5h1400v-350q0 -21 -14.5 -35.5t-35.5 -14.5h-1800q-21 0 -35.5 14.5t-14.5 35.5zM800 500v500h200 l100 -100v-200l-100 -100h-100v-100h-100zM900 700h100v200h-100v-200zM1000 1200h200v100h150v50h-200v-50h-150v-100zM1000 1400h200v100h150v50h-200v-50h-150v-100zM1000 1600h200v100h150v50h-200v-50h-150v-100zM1000 1800h200v100h150v50h-200v-50h-150v-100z M1000 2000h200v100h150v50h-200v-50h-150v-100zM1000 2200h200v100h150v50h-200v-50h-150v-100zM1200 500v500h100v-200h100v-100h-100v-200h-100zM1400 500h100v200h-100v-200zM1400 800h100v200h-100v-200zM1600 500v500h300v-100h-200v-300h100v200h100v-300h-300z M1600 1950v450l500 -500h-450q-21 0 -35.5 14.5t-14.5 35.5z" />
<glyph unicode="&#xe115;" d="M200 50v2300q0 21 14.5 35.5t35.5 14.5h1250v-550q0 -21 14.5 -35.5t35.5 -14.5h550v-700h-1400q-41 0 -70.5 -29.5t-29.5 -70.5v-500q0 -41 29.5 -70.5t70.5 -29.5h1400v-350q0 -21 -14.5 -35.5t-35.5 -14.5h-1800q-21 0 -35.5 14.5t-14.5 35.5zM800 500v500h200 l100 -100v-200h-100v200h-100v-200l100 -100h-100v-100h-100zM1000 500v100h100v-100h-100zM1000 1200h200v100h150v50h-200v-50h-150v-100zM1000 1400h200v100h150v50h-200v-50h-150v-100zM1000 1600h200v100h150v50h-200v-50h-150v-100zM1000 1800h200v100h150v50h-200 v-50h-150v-100zM1000 2000h200v100h150v50h-200v-50h-150v-100zM1000 2200h200v100h150v50h-200v-50h-150v-100zM1200 500v500h200l100 -100v-200l-100 -100h-100v-100h-100zM1300 700h100v200h-100v-200zM1600 500h100v300h100v-300h100v500h-100v-100h-100v100h-100v-500z M1600 1950v450l500 -500h-450q-21 0 -35.5 14.5t-14.5 35.5z" />
<glyph unicode="&#xe116;" d="M200 50v2300q0 21 14.5 35.5t35.5 14.5h1250v-550q0 -21 14.5 -35.5t35.5 -14.5h550v-700h-1400q-41 0 -70.5 -29.5t-29.5 -70.5v-500q0 -41 29.5 -70.5t70.5 -29.5h1400v-350q0 -21 -14.5 -35.5t-35.5 -14.5h-1800q-21 0 -35.5 14.5t-14.5 35.5zM800 600v300l100 100 h200v-100h-200v-300h200v-100h-200zM1000 1200h200v100h150v50h-200v-50h-150v-100zM1000 1400h200v100h150v50h-200v-50h-150v-100zM1000 1600h200v100h150v50h-200v-50h-150v-100zM1000 1800h200v100h150v50h-200v-50h-150v-100zM1000 2000h200v100h150v50h-200v-50h-150 v-100zM1000 2200h200v100h150v50h-200v-50h-150v-100zM1200 500v500h200l100 -100v-100l-50 -50l50 -50v-100l-100 -100h-200zM1300 600h100v100h-100v-100zM1300 800h100v100h-100v-100zM1600 500v500h200l100 -100v-200h-100v200h-100v-200l100 -100h-100v-100h-100z M1600 1950v450l500 -500h-450q-21 0 -35.5 14.5t-14.5 35.5zM1800 500v100h100v-100h-100z" />
<glyph unicode="&#xe117;" d="M200 50v2300q0 21 14.5 35.5t35.5 14.5h1250v-550q0 -21 14.5 -35.5t35.5 -14.5h550v-700h-1400q-41 0 -70.5 -29.5t-29.5 -70.5v-500q0 -41 29.5 -70.5t70.5 -29.5h1400v-350q0 -21 -14.5 -35.5t-35.5 -14.5h-1800q-21 0 -35.5 14.5t-14.5 35.5zM800 500v500h300v-100 h-200v-300h100v200h100v-300h-300zM1000 1200h200v100h150v50h-200v-50h-150v-100zM1000 1400h200v100h150v50h-200v-50h-150v-100zM1000 1600h200v100h150v50h-200v-50h-150v-100zM1000 1800h200v100h150v50h-200v-50h-150v-100zM1000 2000h200v100h150v50h-200v-50h-150 v-100zM1000 2200h200v100h150v50h-200v-50h-150v-100zM1200 600l100 -100h200v100h-200v100h-100v-100zM1200 900h200v-100h100v100l-100 100h-200v-100zM1300 700h100v100h-100v-100zM1600 1950v450l500 -500h-450q-21 0 -35.5 14.5t-14.5 35.5z" />
<glyph unicode="&#xe118;" d="M200 50v2300q0 21 14.5 35.5t35.5 14.5h1250v-550q0 -21 14.5 -35.5t35.5 -14.5h550v-700h-1400q-41 0 -70.5 -29.5t-29.5 -70.5v-500q0 -41 29.5 -70.5t70.5 -29.5h1400v-350q0 -21 -14.5 -35.5t-35.5 -14.5h-1800q-21 0 -35.5 14.5t-14.5 35.5zM500 1700h700v300h-700 v-300zM800 500v500h200l100 -100v-300l-100 -100h-200zM900 600h100v300h-100v-300zM900 1800v100h200v-100h-200zM1200 500v500h100v-100h100v100h100v-500h-100v300h-100v-300h-100zM1600 600v300l100 100h200v-100h-200v-300h100v200h100v-300h-200zM1600 1950v450 l500 -500h-450q-21 0 -35.5 14.5t-14.5 35.5z" />
<glyph unicode="&#xe119;" d="M200 50v2300q0 21 14.5 35.5t35.5 14.5h1250v-550q0 -21 14.5 -35.5t35.5 -14.5h550v-700h-1400q-41 0 -70.5 -29.5t-29.5 -70.5v-500q0 -41 29.5 -70.5t70.5 -29.5h1400v-350q0 -21 -14.5 -35.5t-35.5 -14.5h-1800q-21 0 -35.5 14.5t-14.5 35.5zM500 1700h700v300h-700 v-300zM800 600v300l100 100h200v-100h-200v-300h200v-100h-200zM900 1800v100h200v-100h-200zM1200 600v400h100v-400h100v400h100v-400l-100 -100h-100zM1600 600v300l100 100h200v-100h-200v-100h200v-100h-200v-100h200v-100h-200zM1600 1950v450l500 -500h-450 q-21 0 -35.5 14.5t-14.5 35.5z" />
<glyph unicode="&#xe120;" d="M200 50v2300q0 21 14.5 35.5t35.5 14.5h1250v-550q0 -21 14.5 -35.5t35.5 -14.5h550v-700h-1400q-41 0 -70.5 -29.5t-29.5 -70.5v-500q0 -41 29.5 -70.5t70.5 -29.5h1400v-350q0 -21 -14.5 -35.5t-35.5 -14.5h-1800q-21 0 -35.5 14.5t-14.5 35.5zM500 1700h700v300h-700 v-300zM800 500v500h200l100 -100v-100l-50 -50l50 -50v-100l-100 -100h-200zM900 600h100v100h-100v-100zM900 800h100v100h-100v-100zM900 1800v100h200v-100h-200zM1200 500v500h100v-500h-100zM1400 500v500h200v-100h-100v-400h-100zM1600 500v400h100v-400h-100z M1600 1950v450l500 -500h-450q-21 0 -35.5 14.5t-14.5 35.5z" />
<glyph unicode="&#xe121;" d="M200 50v2300q0 21 14.5 35.5t35.5 14.5h1250v-550q0 -21 14.5 -35.5t35.5 -14.5h550v-700h-1400q-41 0 -70.5 -29.5t-29.5 -70.5v-500q0 -41 29.5 -70.5t70.5 -29.5h1400v-350q0 -21 -14.5 -35.5t-35.5 -14.5h-1800q-21 0 -35.5 14.5t-14.5 35.5zM500 1700h700v300h-700 v-300zM800 500v500h100v-500h-100zM900 1800v100h200v-100h-200zM1000 500v100h200v100h100v-100l-100 -100h-200zM1000 800v100l100 100h200v-100h-200v-100h-100zM1100 700v100h100v-100h-100zM1400 600v300l100 100h100l100 -100v-300l-100 -100h-100zM1500 600h100v300 h-100v-300zM1600 1950v450l500 -500h-450q-21 0 -35.5 14.5t-14.5 35.5z" />
<glyph unicode="&#xe122;" d="M200 50v2300q0 21 14.5 35.5t35.5 14.5h1250v-550q0 -21 14.5 -35.5t35.5 -14.5h550v-700h-1400q-41 0 -70.5 -29.5t-29.5 -70.5v-500q0 -41 29.5 -70.5t70.5 -29.5h1400v-350q0 -21 -14.5 -35.5t-35.5 -14.5h-1800q-21 0 -35.5 14.5t-14.5 35.5zM500 1700h700v300h-700 v-300zM800 500v500h100v-200h100v200h100v-500h-100v200h-100v-200h-100zM900 1800v100h200v-100h-200zM1200 500v500h200l100 -100v-300l-100 -100h-200zM1300 600h100v300h-100v-300zM1600 500v400l101 100h199v-100h-200v-100h200v-100h-200v-200h-100zM1600 1950v450 l500 -500h-450q-21 0 -35.5 14.5t-14.5 35.5z" />
<glyph unicode="&#xe123;" d="M200 50v2300q0 21 14.5 35.5t35.5 14.5h1250v-550q0 -21 14.5 -35.5t35.5 -14.5h550v-700h-1400q-41 0 -70.5 -29.5t-29.5 -70.5v-500q0 -41 29.5 -70.5t70.5 -29.5h1400v-350q0 -21 -14.5 -35.5t-35.5 -14.5h-1800q-21 0 -35.5 14.5t-14.5 35.5zM500 1700h700v300h-700 v-300zM800 500v500h100v-400h100v-100h-200zM900 1800v100h200v-100h-200zM1000 600v400h100v-400h-100zM1200 600v300l100 100h200v-100h-200v-300h200v-100h-200zM1600 500v500h200l100 -100v-300l-100 -100h-200zM1600 1950v450l500 -500h-450q-21 0 -35.5 14.5 t-14.5 35.5zM1700 600h100v300h-100v-300z" />
<glyph unicode="&#xe124;" d="M200 50v2300q0 21 14.5 35.5t35.5 14.5h1250v-550q0 -21 14.5 -35.5t35.5 -14.5h550v-700h-1400q-41 0 -70.5 -29.5t-29.5 -70.5v-500q0 -41 29.5 -70.5t70.5 -29.5h1400v-350q0 -21 -14.5 -35.5t-35.5 -14.5h-1800q-21 0 -35.5 14.5t-14.5 35.5zM800 500v500h200 l100 -100v-100l-50 -50l50 -50v-100l-100 -100h-200zM900 600h100v100h-100v-100zM900 800h100v100h-100v-100zM1200 500v400l100 100h100l100 -100v-400h-100v100h-100v-100h-100zM1300 700h100v200h-100v-200zM1600 500v500h100v-200h100v-100h-100v-200h-100zM1600 1950 v450l500 -500h-450q-21 0 -35.5 14.5t-14.5 35.5zM1800 500v200h100v-200h-100zM1800 800v200h100v-200h-100z" />
<glyph unicode="&#xe125;" d="M200 50v2300q0 21 14.5 35.5t35.5 14.5h1250v-550q0 -21 14.5 -35.5t35.5 -14.5h550v-700h-1400q-41 0 -70.5 -29.5t-29.5 -70.5v-500q0 -41 29.5 -70.5t70.5 -29.5h1400v-350q0 -21 -14.5 -35.5t-35.5 -14.5h-1800q-21 0 -35.5 14.5t-14.5 35.5zM800 900v100h300v-100 h-100v-400h-100v400h-100zM1200 500v500h100v-100h100v100h100v-500h-100v300h-100v-300h-100zM1600 500v500h200l100 -100v-200l-100 -100h-100v-100h-100zM1600 1950v450l500 -500h-450q-21 0 -35.5 14.5t-14.5 35.5zM1700 700h100v200h-100v-200z" />
<glyph unicode="&#xe126;" d="M200 50v2300q0 21 14.5 35.5t35.5 14.5h1250v-550q0 -21 14.5 -35.5t35.5 -14.5h550v-700h-1400q-41 0 -70.5 -29.5t-29.5 -70.5v-500q0 -41 29.5 -70.5t70.5 -29.5h1400v-350q0 -21 -14.5 -35.5t-35.5 -14.5h-1800q-21 0 -35.5 14.5t-14.5 35.5zM800 500v500h100v-500 h-100zM1000 600v300l100 100h200v-100h-200v-300h200v-100h-200zM1400 500v100h200v100h100v-100l-100 -100h-200zM1400 800v100l100 100h200v-100h-200v-100h-100zM1500 700v100h100v-100h-100zM1600 1950v450l500 -500h-450q-21 0 -35.5 14.5t-14.5 35.5z" />
<glyph unicode="&#xe127;" d="M200 50v2300q0 21 14.5 35.5t35.5 14.5h1250v-550q0 -21 14.5 -35.5t35.5 -14.5h550v-700h-1400q-41 0 -70.5 -29.5t-29.5 -70.5v-500q0 -41 29.5 -70.5t70.5 -29.5h1400v-350q0 -21 -14.5 -35.5t-35.5 -14.5h-1800q-21 0 -35.5 14.5t-14.5 35.5zM800 500v500h100v-100 h100v100h100v-500h-100v300h-100v-300h-100zM1200 500v100h200v100h100v-100l-100 -100h-200zM1200 800v100l100 100h200v-100h-200v-100h-100zM1300 700v100h100v-100h-100zM1600 500v500h100v-500h-100zM1600 1950v450l500 -500h-450q-21 0 -35.5 14.5t-14.5 35.5z" />
<glyph unicode="&#xe128;" d="M200 50v2300q0 21 14.5 35.5t35.5 14.5h1250v-550q0 -21 14.5 -35.5t35.5 -14.5h550v-700h-1400q-41 0 -70.5 -29.5t-29.5 -70.5v-500q0 -41 29.5 -70.5t70.5 -29.5h1400v-350q0 -21 -14.5 -35.5t-35.5 -14.5h-1800q-21 0 -35.5 14.5t-14.5 35.5zM800 600v300l100 100 h200v-100h-200v-300h200v-100h-200zM1200 500v400l101 100h199v-100h-200v-100h200v-100h-200v-200h-100zM1600 600v300l100 100h200v-100h-200v-300h100v200h100v-300h-200zM1600 1950v450l500 -500h-450q-21 0 -35.5 14.5t-14.5 35.5z" />
<glyph unicode="&#xe129;" d="M200 50v2300q0 21 14.5 35.5t35.5 14.5h1250v-550q0 -21 14.5 -35.5t35.5 -14.5h550v-700h-1400q-41 0 -70.5 -29.5t-29.5 -70.5v-500q0 -41 29.5 -70.5t70.5 -29.5h1400v-350q0 -21 -14.5 -35.5t-35.5 -14.5h-1800q-21 0 -35.5 14.5t-14.5 35.5zM800 500v500h100v-500 h-100zM1000 500v500h200v-100h-100v-400h-100zM1200 500v400h100v-400h-100zM1400 500v500h100v-500h-100zM1600 1950v450l500 -500h-450q-21 0 -35.5 14.5t-14.5 35.5z" />
<glyph unicode="&#xe130;" d="M200 50v2300q0 21 14.5 35.5t35.5 14.5h1250v-550q0 -21 14.5 -35.5t35.5 -14.5h550v-700h-1400q-41 0 -70.5 -29.5t-29.5 -70.5v-500q0 -41 29.5 -70.5t70.5 -29.5h1400v-350q0 -21 -14.5 -35.5t-35.5 -14.5h-1800q-21 0 -35.5 14.5t-14.5 35.5zM800 500v500h200 l100 -100v-200l-100 -100h-100v-100h-100zM900 700h100v200h-100v-200zM1200 500v500h200l100 -100v-200h-100v200h-100v-200l100 -100h-100v-100h-100zM1400 500v100h100v-100h-100zM1600 500v400l101 100h199v-100h-200v-100h200v-100h-200v-200h-100zM1600 1950v450 l500 -500h-450q-21 0 -35.5 14.5t-14.5 35.5z" />
</font>
</defs>
</svg>
